Клан / El Clan (2015) 720p Ukr/Esp | Sub Eng/Esp

Нові коментарі

Нова тема   Відповісти
Автор Повідомлення
Anonymous 







2017-05-08 09:53  
Клан / El Clan (2015) 720p Ukr/Esp | Sub Eng/Esp


Жанр: біографічний, кримінальний, драма
Країна: Аргентина, Іспанія

Срібний лев Венеціанського кінофестивалю найкращому режисеру (Пабло Траперо) та премія Гоя за найкращий латиноамериканський фільм



Кінокомпанія: El Deseo, Instituto Nacional de Cine y Artes Audiovisuales (INCAA), Instituto de la Cinematografía y de las Artes Audiovisuales (ICAA), K&S Films, Kramer & Sigman Films, Matanza Cine, Telefonica Studios, Televisión Federal (Telefe)
Режисер: Пабло Траперо / Pablo Trapero
Актори: Ґільєрмо Франселья / Guillermo Francella, Пітер Ланзані / Peter Lanzani, Лілі Попович / Lili Popovich, Ґастон Кокьярале / Gastón Cocchiarale, Жізелль Мотта / Giselle Motta, Франко Масіні / Franco Masini, Антонія Бенґоекеа / Antonia Bengoechea, Стефанія Кьосль / Stefanía Koessl, Реймонд Едвард Лі / Raymond E. Lee, Фернандо Міро / Fernando Miró та інші

Сюжет:
Початок 80-их, Аргентина. Після семи років панування найжорстокішої диктатури, до влади приходить демократія, яка послідовно усуває колишніх силовиків як пережиток минулого. Одним з відсторонених виявляється Архімед Пуччіо, колишній співробітник аргентинських спецслужб, який звик за старого режиму жити на широку ногу, і не хоче задовольнятися нинішніми особняком в передмісті Буенос-Айреса і сімейним магазинчиком спортивного інвентарю. Тому Архімед налагоджує побічний сімейний бізнес - він викрадає людей.

Рейтинг MPAA: R - особам до 17 років обов'язкова присутність батьків або дорослого опікуна
Вікова категорія: 16+
Тривалість: 01:48:31
Якість: 720p [EbP]
Відео:
кодек:
розмір кадру: 1280 х 536
бітрейт: 3721 кб/с [crf=16.7]

Аудіо # 1:
мова: українська
переклад: двоголосий закадровий | Компанія "Кіт"
кодек: 2.0
бітрейт: 192 кб/с

Аудіо # 2:
мова: іспанська
переклад: оригінал
кодек: 5.1
бітрейт: 640 кб/с

Субтитри # 1:
мова: англійська
тип: програмні (м'які)
формат: *.srt

Субтитри # 2-3:
мова: іспанська (повні, SDH)
тип: програмні (м'які)
формат: *.srt

Збережено оригінальні розділи, як на Blu-ray
Info та log
Код:
Complete name               : El Clan (2015) [Ukr,Esp sub.Eng,Esp] 720p [Hurtom].
Format                      :
Format version              : Version 4 / Version 2
File size                   : 3.45 GiB
Duration                    : 1 h 48 min
Overall bit rate            : 4 556 kb/s
Movie name                  : Клан / El Clan (2015) [Ukr,Esp sub.Eng,Esp] 720p [Hurtom]
Released date               : 2015
Cover                       : Yes
Comment                     : http://www.imdb.com/title/tt4411504/
Attachments                 : cover.jpg
ARTIST                      : Ґільєрмо Франселья / Guillermo Francella, Пітер Ланзані / Peter Lanzani, Лілі Попович / Lili Popovich, Ґастон Кокьярале / Gastón Cocchiarale, Жізелль Мотта / Giselle Motta, Франко Масіні / Franco Masini, Антонія Бенґоекеа / Antonia Bengoechea, Стефанія Кьосль / Stefanía Koessl, Реймонд Едвард Лі / Raymond E. Lee, Фернандо Міро / Fernando Miró та інші
DIRECTOR                    : Пабло Траперо / Pablo Trapero
GENRE                       : біографічний, кримінальний, драма
SYNOPSIS                    : Початок 80-их, Аргентина. Після семи років панування найжорстокішої диктатури, до влади приходить демократія, яка послідовно усуває колишніх силовиків як пережиток минулого. Одним з відсторонених виявляється Архімед Пуччіо, колишній співробітник аргентинських спецслужб, який звик за старого режиму жити на широку ногу, і не хоче задовольнятися нинішніми особняком в передмісті Буенос-Айреса і сімейним магазинчиком спортивного інвентарю. Тому Архімед налагоджує побічний сімейний бізнес - він викрадає людей...
Url                         : https://toloka.to/t81807

Video
ID                          : 1
Format                      : AVC
Format/Info                 : Advanced Video Codec
Format profile              : [email protected]
Format settings, CABAC      : Yes
Format settings, ReFrames   : 12 frames
Codec ID                    : V_MPEG4/ISO/AVC
Duration                    : 1 h 48 min
Bit rate                    : 3 721 kb/s
Width                       : 1 280 pixels
Height                      : 536 pixels
Display aspect ratio        : 2.40:1
Frame rate mode             : Constant
Frame rate                  : 23.976 (24000/1001) FPS
Color space                 : YUV
Chroma subsampling          : 4:2:0
Bit depth                   : 8 bits
Scan type                   : Progressive
Bits/(Pixel*Frame)          : 0.226
Stream size                 : 2.82 GiB (82%)
Title                       : Клан / El Clan (2015) 720p [EbP]
Writing library             : core 148 r2665 a01e339
Encoding settings           : cabac=1 / ref=12 / deblock=1:-3:-3 / analyse=0x3:0x133 / me=umh / subme=10 / psy=1 / psy_rd=1.05:0.00 / mixed_ref=1 / me_range=16 / chroma_me=1 / trellis=2 / 8x8dct=1 / cqm=0 / deadzone=21,11 / fast_pskip=0 / chroma_qp_offset=-2 / threads=12 / lookahead_threads=2 / sliced_threads=0 / nr=0 / decimate=0 / interlaced=0 / bluray_compat=0 / constrained_intra=0 / bframes=9 / b_pyramid=2 / b_adapt=2 / b_bias=0 / direct=3 / weightb=1 / open_gop=0 / weightp=2 / keyint=250 / keyint_min=23 / scenecut=40 / intra_refresh=0 / rc=crf / mbtree=0 / crf=16.7 / qcomp=0.60 / qpmin=0 / qpmax=69 / qpstep=4 / ip_ratio=1.40 / pb_ratio=1.30 / aq=3:0.65 / zones=143762,156109,crf=21
Language                    : Spanish
Default                     : Yes
Forced                      : No

Audio #1
ID                          : 2
Format                      : AC-3
Format/Info                 : Audio Coding 3
Format settings, Endianness : Big
Codec ID                    : A_AC3
Duration                    : 1 h 48 min
Bit rate mode               : Constant
Bit rate                    : 192 kb/s
Channel(s)                  : 2 channels
Channel positions           : Front: L R
Sampling rate               : 48.0 kHz
Frame rate                  : 31.250 FPS (1536 spf)
Bit depth                   : 16 bits
Compression mode            : Lossy
Stream size                 : 149 MiB (4%)
Title                       : DVO [Kyiv, Kit] 2.0 192 Kbps [Hurtom-Gelios, krigg070]
Language                    : Ukrainian
Service kind                : Complete Main
Default                     : Yes
Forced                      : Yes

Audio #2
ID                          : 3
Format                      : AC-3
Format/Info                 : Audio Coding 3
Format settings, Endianness : Big
Codec ID                    : A_AC3
Duration                    : 1 h 48 min
Bit rate mode               : Constant
Bit rate                    : 640 kb/s
Channel(s)                  : 6 channels
Channel positions           : Front: L C R, Side: L R, LFE
Sampling rate               : 48.0 kHz
Frame rate                  : 31.250 FPS (1536 spf)
Bit depth                   : 16 bits
Compression mode            : Lossy
Stream size                 : 497 MiB (14%)
Title                       : Original, 5.1 640 Kbps
Language                    : Spanish
Service kind                : Complete Main
Default                     : No
Forced                      : No

Text #1
ID                          : 4
Format                      : UTF-8
Codec ID                    : S_TEXT/UTF8
Codec ID/Info               : UTF-8 Plain Text
Duration                    : 1 h 40 min
Bit rate                    : 56 b/s
Count of elements           : 1178
Stream size                 : 41.6 KiB (0%)
Title                       : Eng full
Language                    : English
Default                     : No
Forced                      : No

Text #2
ID                          : 5
Format                      : UTF-8
Codec ID                    : S_TEXT/UTF8
Codec ID/Info               : UTF-8 Plain Text
Duration                    : 1 h 45 min
Bit rate                    : 57 b/s
Count of elements           : 1355
Stream size                 : 44.0 KiB (0%)
Title                       : Esp full
Language                    : Spanish
Default                     : No
Forced                      : No

Text #3
ID                          : 6
Format                      : UTF-8
Codec ID                    : S_TEXT/UTF8
Codec ID/Info               : UTF-8 Plain Text
Duration                    : 1 h 45 min
Bit rate                    : 59 b/s
Count of elements           : 1445
Stream size                 : 45.8 KiB (0%)
Title                       : Esp SDH
Language                    : Spanish
Default                     : No
Forced                      : No

Menu
00:00:00.000                : en:00:00:00.000
00:08:44.190                : en:00:08:44.190
00:17:19.080                : en:00:17:19.080
00:28:18.864                : en:00:28:18.864
00:35:41.264                : en:00:35:41.264
00:42:00.351                : en:00:42:00.351
00:48:39.250                : en:00:48:39.250
00:56:42.524                : en:00:56:42.524
01:05:11.991                : en:01:05:11.991
01:14:13.324                : en:01:14:13.324
01:19:05.366                : en:01:19:05.366
01:26:57.129                : en:01:26:57.129
01:38:39.539                : en:01:38:39.539
01:42:01.532                : en:01:42:01.532

Код:
[info]: frame I:849   Avg QP:14.72  size: 82539
[info]: frame P:33045 Avg QP:16.79  size: 38438
[info]: frame B:122216 Avg QP:18.75  size: 13813
[info]: consecutive B-frames:  1.6%  2.4%  8.2% 19.6% 17.7% 35.9%  5.0%  3.1%  3.1%  3.5%


Джерело: &
Подяка Gelios'у за українську доріжку та постер, krigg070 за запис з ТБ.


 Трекер:    Зареєстрований   

Завантажити / скачати фільм українською



відео для новачків



 Зареєстрований:   2017-05-08 10:29
 Розмір:   3.45 GB 
 Оцінка фільму:   4.5/10 (Голосів: 18)
   
Інші релізи
   Клан / El Clan (2015) Gelios  7 / 0   1.45 GB   2017-02-07 09:16 
Oleksa9 
VIP


З нами з: 17.05.12
Востаннє: 23.04.19
Повідомлень: 342

2019-03-20 06:32  
щьо, щє, якщьо,
чюдово, нічього, чювак, ліворучь, дівчята, точьно, мучьте, чюти,
"уходять" ?
"типу того" ??
"увозите" ....

Ваш часовий пояс: GMT + 2 Години

Нова тема   Відповісти