Severoth | Дискографія (3CD) (2015-2017) [FLAC] | Atmospheric Black Metal

Нові коментарі

Нова тема   Відповісти
Автор Повідомлення
kolpavel 
VIP


З нами з: 04.05.14
Востаннє: 24.11.17
Повідомлень: 1158

2017-05-07 12:32  
Severoth | Дискографія (3CD) (2015-2017) [FLAC] | Atmospheric Black Metal

Severoth | Дискографія (3CD) (2015-2017) [FLAC] | Atmospheric Black Metal


Стиль: Atmospheric Black Metal
Країна, місто: Україна, Днiпро
Видавець: Werewolf Promotion
Виконавці:
Музика, вірші, інструменти, вокал, дизайн - Severoth.
Альбоми:
2015 - Winterfall

Severoth | Дискографія (3CD) (2015-2017) [FLAC] | Atmospheric Black Metal


Треклист:

01. Winterfall part I - 10:56
02. Winterfall part II - 13:12
03. Winterfall part III - 10:09
04. Winterfall part IV 04:38
05. En As I Dype Skogen (Darkthrone cover) - 09:03

Тривалість: 00:47:58
Видавець: Werewolf Promotion (Каталог ID:VWP-CD33)
Мова: англiйська
Бітрейт: 756 кб/с
EAC
Exact Audio Copy V1.0 beta 3 from 29. August 2011

EAC extraction logfile from 20. September 2015, 19:45

Severoth / Winterfall

Used drive : hp DVD-RAM UJ8D1 Adapter: 0 ID: 0

Read mode : Secure
Utilize accurate stream : Yes
Defeat audio cache : Yes
Make use of C2 pointers : No

Read offset correction : 6
Overread into Lead-In and Lead-Out : No
Fill up missing offset samples with silence : Yes
Delete leading and trailing silent blocks : No
Null samples used in CRC calculations : Yes
Used interface : Native Win32 interface for Win NT & 2000

Used output format : Internal WAV Routines
Sample format : 44.100 Hz; 16 Bit; Stereo

TOC of the extracted CD

Track | Start | Length | Start sector | End sector
---------------------------------------------------------
1 | 0:00.00 | 10:56.31 | 0 | 49230
2 | 10:56.31 | 13:12.24 | 49231 | 108654
3 | 24:08.55 | 10:08.39 | 108655 | 154293
4 | 34:17.19 | 4:38.00 | 154294 | 175143
5 | 38:55.19 | 9:03.28 | 175144 | 215896

Range status and errors

Selected range

Filename D:\Torosar\EAC\Severoth - Winterfall (2015) FLAC\Severoth - Winterfall.wav

Peak level 100.0 %
Extraction speed 4.4 X
Range quality 100.0 %
Test CRC 60D07EEB
Copy CRC 60D07EEB
Copy OK

No errors occurred

AccurateRip summary

Track 1 not present in database
Track 2 not present in database
Track 3 not present in database
Track 4 not present in database
Track 5 not present in database

None of the tracks are present in the AccurateRip database

End of status report

==== Log checksum C50057B41DE2AC2FB71DB4CA2E10E4B396989982F6E28C89DE15405539CEE401 ====
(.CUE)
REM GENRE "Black Metal"
REM DATE 2015
REM DISCID 3E0B3E05
REM COMMENT "ExactAudioCopy v1.0b3"
PERFORMER "Severoth"
TITLE "Winterfall"
FILE "Severoth - Winterfall.flac" WAVE
TRACK 01 AUDIO
TITLE "Winterfall part I"
PERFORMER "Severoth"
INDEX 01 00:00:00
TRACK 02 AUDIO
TITLE "Winterfall part II"
PERFORMER "Severoth"
INDEX 00 10:54:31
INDEX 01 10:56:31
TRACK 03 AUDIO
TITLE "Winterfall part III"
PERFORMER "Severoth"
INDEX 00 24:06:55
INDEX 01 24:08:55
TRACK 04 AUDIO
TITLE "Winterfall part IV"
PERFORMER "Severoth"
INDEX 00 34:15:19
INDEX 01 34:17:19
TRACK 05 AUDIO
TITLE "En As I Dype Skogen (Darkthrone cover)"
PERFORMER "Severoth"
INDEX 00 38:53:19
INDEX 01 38:55:19
2016 - Solitude

Severoth | Дискографія (3CD) (2015-2017) [FLAC] | Atmospheric Black Metal


Треклист:

01. Гроза/Storm - 14:21
02. Самітність/Solitude - 14:02
03. Дихання осені І/Autumn's Breath I - 06:08
04. Останні птахи/Last Birds - 15:25
05. Дихання осені ІІ/Autumn's Breath II - 03:35
06. В минуле.../Into the Past... - 13:45

Тривалість: 01:07:18
Видавець: Werewolf Promotion (Каталог ID: WP-CD39)
Мова: українська
Бітрейт: 799 кб/с
EAC
Exact Audio Copy V1.1 from 23. June 2015

EAC extraction logfile from 18. May 2016, 20:29

Severoth / Solitude

Used drive : hp DVD-RAM UJ8D1 Adapter: 1 ID: 0

Read mode : Secure
Utilize accurate stream : Yes
Defeat audio cache : Yes
Make use of C2 pointers : No

Read offset correction : 6
Overread into Lead-In and Lead-Out : No
Fill up missing offset samples with silence : Yes
Delete leading and trailing silent blocks : No
Null samples used in CRC calculations : Yes
Used interface : Native Win32 interface for Win NT & 2000

Used output format : Internal WAV Routines
Sample format : 44.100 Hz; 16 Bit; Stereo

TOC of the extracted CD

Track | Start | Length | Start sector | End sector
---------------------------------------------------------
1 | 0:00.00 | 14:21.15 | 0 | 64589
2 | 14:21.15 | 14:02.51 | 64590 | 127790
3 | 28:23.66 | 6:08.21 | 127791 | 155411
4 | 34:32.12 | 15:25.60 | 155412 | 224846
5 | 49:57.72 | 3:35.25 | 224847 | 240996
6 | 53:33.22 | 13:45.28 | 240997 | 302899

Range status and errors

Selected range

Filename D:\Torosar\EAC\Severoth - Solitude (2016)\Severoth - Solitude.wav

Peak level 100.0 %
Extraction speed 4.9 X
Range quality 100.0 %
Test CRC 39F55589
Copy CRC 39F55589
Copy OK

No errors occurred

AccurateRip summary

Track 1 not present in database
Track 2 not present in database
Track 3 not present in database
Track 4 not present in database
Track 5 not present in database
Track 6 not present in database

None of the tracks are present in the AccurateRip database

End of status report

---- CUETools DB Plugin V2.1.6

[CTDB TOCID: o9aSISXBQeuyrvxE87a7zWsxypo-] found
Submit result: o9aSISXBQeuyrvxE87a7zWsxypo- has been confirmed
Track | CTDB Status
1 | (1/1) Accurately ripped
2 | (1/1) Accurately ripped
3 | (1/1) Accurately ripped
4 | (1/1) Accurately ripped
5 | (1/1) Accurately ripped
6 | (1/1) Accurately ripped

==== Log checksum 5D2469B577E7D675446D417A700AAC35A7C19BDB44A3414B35697814467D7585 ====
(.CUE)
REM GENRE "Black Metal"
REM DATE 2016
REM DISCID 550FC606
REM COMMENT "ExactAudioCopy v1.1"
PERFORMER "Severoth"
TITLE "Solitude"
FILE "Severoth - Solitude.flac" WAVE
TRACK 01 AUDIO
TITLE "Гроза/Storm"
PERFORMER "Severoth"
INDEX 01 00:00:00
TRACK 02 AUDIO
TITLE "Самітність/Solitude"
PERFORMER "Severoth"
INDEX 00 14:19:15
INDEX 01 14:21:15
TRACK 03 AUDIO
TITLE "Дихання осені I/Autumn's Breath I"
PERFORMER "Severoth"
INDEX 00 28:21:66
INDEX 01 28:23:66
TRACK 04 AUDIO
TITLE "Останні птахи/Last Birds"
PERFORMER "Severoth"
INDEX 00 34:30:12
INDEX 01 34:32:12
TRACK 05 AUDIO
TITLE "Дихання осені II/Autumn's Breath II"
PERFORMER "Severoth"
INDEX 00 49:55:72
INDEX 01 49:57:72
TRACK 06 AUDIO
TITLE "В минуле.../Into the Past..."
PERFORMER "Severoth"
INDEX 00 53:31:22
INDEX 01 53:33:22
2017 - Forestpaths

Severoth | Дискографія (3CD) (2015-2017) [FLAC] | Atmospheric Black Metal


Треклист:

01. Forestpaths I (Мікрокосм) - 12:40
02. Forestpaths II (Темної ночі очі) - 15:56
03. Forestpaths III (Крижаний танок) - 03:49
04. Forestpaths IV (Вже неминуче буде сніг) - 12:22
05. Forestpaths V (В серці сивих Карпат) - 09:12
06. Forestpaths VI (Чумацький шлях) - 08:29

Тривалість: 01:02:30
Видавець: Werewolf Promotion (Каталог ID: WP-CD72)
Мова: українська
Бітрейт: 868 кб/с
EAC
Exact Audio Copy V1.1 from 23. June 2015

EAC extraction logfile from 6. May 2017, 18:04

Severoth / Forestpaths

Used drive : hp DVD-RAM UJ8D1 Adapter: 1 ID: 0

Read mode : Secure
Utilize accurate stream : Yes
Defeat audio cache : Yes
Make use of C2 pointers : No

Read offset correction : 6
Overread into Lead-In and Lead-Out : No
Fill up missing offset samples with silence : Yes
Delete leading and trailing silent blocks : No
Null samples used in CRC calculations : Yes
Used interface : Native Win32 interface for Win NT & 2000

Used output format : Internal WAV Routines
Sample format : 44.100 Hz; 16 Bit; Stereo

TOC of the extracted CD

Track | Start | Length | Start sector | End sector
---------------------------------------------------------
1 | 0:00.00 | 12:40.00 | 0 | 56999
2 | 12:40.00 | 15:56.57 | 57000 | 128756
3 | 28:36.57 | 3:49.56 | 128757 | 145987
4 | 32:26.38 | 12:22.31 | 145988 | 201668
5 | 44:48.69 | 9:12.00 | 201669 | 243068
6 | 54:00.69 | 8:29.28 | 243069 | 281271

Range status and errors

Selected range

Filename D:\Torosar\EAC\Severoth - Forestpaths (2017)\Severoth - Forestpaths.wav

Peak level 100.0 %
Extraction speed 4.4 X
Range quality 99.9 %
Test CRC 2B106103
Copy CRC 2B106103
Copy OK

No errors occurred

AccurateRip summary

Track 1 not present in database
Track 2 not present in database
Track 3 not present in database
Track 4 not present in database
Track 5 not present in database
Track 6 not present in database

None of the tracks are present in the AccurateRip database

End of status report

---- CUETools DB Plugin V2.1.6

[CTDB TOCID: gK7txp8MsAipr.WzlWYGkJJEC1g-] disk not present in database
Submit result: gK7txp8MsAipr.WzlWYGkJJEC1g- has been uploaded

==== Log checksum 43C97BA815324651EB308BF165B41671E075D21302C81AE78602BE3869B0F95F ====
(.CUE)
REM GENRE "Black Metal"
REM DATE 2017
REM DISCID 540EA606
REM COMMENT "ExactAudioCopy v1.1"
PERFORMER "Severoth"
TITLE "Forestpaths"
FILE "Severoth - Forestpaths.flac" WAVE
TRACK 01 AUDIO
TITLE "Forestpaths I (Мікрокосм)"
PERFORMER "Severoth"
INDEX 01 00:00:00
TRACK 02 AUDIO
TITLE "Forestpaths II (Темної ночі очі)"
PERFORMER "Severoth"
INDEX 00 12:38:00
INDEX 01 12:40:00
TRACK 03 AUDIO
TITLE "Forestpaths III (Крижаний танок)"
PERFORMER "Severoth"
INDEX 00 28:34:57
INDEX 01 28:36:57
TRACK 04 AUDIO
TITLE "Forestpaths IV (Вже неминуче буде сніг)"
PERFORMER "Severoth"
INDEX 00 32:24:38
INDEX 01 32:26:38
TRACK 05 AUDIO
TITLE "Forestpaths V (В серці сивих Карпат)"
PERFORMER "Severoth"
INDEX 00 44:46:69
INDEX 01 44:48:69
TRACK 06 AUDIO
TITLE "Forestpaths VI (Чумацький шлях)"
PERFORMER "Severoth"
INDEX 00 53:58:69
INDEX 01 54:00:69
Додаткова інформація: Слова пiснi на треку 4 Микола Вiнграновський (1936 - 2004)
Тривалість: 02:57:46
Мова: англiйська (CD1), українська (CD2,3)
Аудіо-кодек: FLAC
Бітрейт: 756-868 кб/с
Джерело: Torosar91
Додаткова інформація: ріпи з оригінальних CD


Золотий реліз (завантажене не впливає на рейтинг)
 Трекер:    Зареєстрований   

Завантажити / скачати українську музику



відео для новачків



 Зареєстрований:   2017-05-07 12:32
 Розмір:   1.09 GB 
 Оцінка музики:   10/10 (Голосів: 4)
   
kolpavel 
VIP


З нами з: 04.05.14
Востаннє: 24.11.17
Повідомлень: 1158

2017-05-07 13:11  
Дякую Torosar91 за підготовку даного релізу.
Ваш часовий пояс: GMT + 2 Години

Нова тема   Відповісти