Холодна гора / Cold Mountain (2003) AVC Ukr/Eng | Sub Eng

Нові коментарі

Нова тема   Відповісти
Автор Повідомлення
Anonymous 







2017-05-06 08:46  
Холодна гора / Cold Mountain (2003) AVC Ukr/Eng | Sub Eng

Холодна гора / Cold Mountain (2003) AVC Ukr/Eng | Sub Eng


Жанр: драма, мелодрама, військовий, пригодницький, історичний
Країна: США, Велика Британія, Італія, Румунія

Оскар, Золотий глобус, премії BAFTA та Гільдії акторів за Найкращу жіночу другорядну роль Рене Зелвеґер



Кінокомпанія: Miramax, Mirage Enterprises, Bona Fide Productions, Castel Film Romania, Cattleya Films
Режисер: Ентоні Мінґелла / Anthony Minghella
Актори: Джуд Лоу / Jude Law, Ніколь Кідмен / Nicole Kidman, Рене Зелвеґер / Renée Zellweger, Наталі Портман / Natalie Portman, Філіп Сеймур Гофмен / Philip Seymour Hoffman, Брендан Ґлісон / Brendan Gleeson, Ейлін Аткінс / Eileen Atkins, Рей Вінстон / Ray Winstone, Дональд Сазерленд / Donald Sutherland, Джованні Рібізі / Giovanni Ribisi, Кеті Бейкер / Kathy Baker та інші

Сюжет:
Кривавий період Громадянської війни в США: американський конфедерат Інман намагається дістатися з лінії фронту додому, в Холодну Гору (штат Північна Кароліна), де залишив свою кохану Аду.
Ада намагається вижити одна в розореному тилу. На допомогу їй приходить бродяга Рубі, яка вчить світську панночку азам господарювання ...


Тривалість: 02:34:26
Якість: AVC
Відео:
кодек:
розмір кадру: 960 х 410
бітрейт: 4735 кб/с [crf=17.5]

Аудіо # 1:
мова: українська
переклад: багатоголосий закадровий
кодек: 2.0
бітрейт: 192 кб/с

Аудіо # 2:
мова: англійська
переклад: оригінал
кодек: 5.1
бітрейт: 448 кб/с

Субтитри:
мова: англійська
тип: програмні (м'які)
формат: *.srt

Збережено оригінальні розділи, як на Blu-ray
Info та log
Код:
Complete name               : Cold Mountain (2003) [Ukr,Eng sub.Eng] AVC [Hurtom].
Format                      :
Format version              : Version 4 / Version 2
File size                   : 5.80 GiB
Duration                    : 2 h 34 min
Overall bit rate            : 5 377 kb/s
Movie name                  : Холодна гора / Cold Mountain (2003) [Ukr,Eng sub.Eng] AVC [Hurtom]
Released date               : 2003
Cover                       : Yes
Comment                     : http://www.imdb.com/title/tt0159365/
Attachments                 : cover.jpg
ARTIST                      : Джуд Лоу / Jude Law, Ніколь Кідмен / Nicole Kidman, Рене Зелвеґер / Renée Zellweger, Наталі Портман / Natalie Portman, Філіп Сеймур Гофмен / Philip Seymour Hoffman, Брендан Ґлісон / Brendan Gleeson, Ейлін Аткінс / Eileen Atkins, Рей Вінстон / Ray Winstone, Дональд Сазерленд / Donald Sutherland, Джованні Рібізі / Giovanni Ribisi, Кеті Бейкер / Kathy Baker та інші
DIRECTOR                    : Ентоні Мінґелла / Anthony Minghella
GENRE                       : драма, мелодрама, військовий, пригодницький, історичний
SYNOPSIS                    : Кривавий період Громадянської війни в США: американський конфедерат Інман намагається дістатися з лінії фронту додому, в Холодну Гору (штат Північна Кароліна), де залишив свою кохану Аду.  / Ада намагається вижити одна в розореному тилу. На допомогу їй приходить бродяга Рубі, яка вчить світську панночку азам господарювання ...
Url                         : https://toloka.to/t81760

Video
ID                          : 1
Format                      : AVC
Format/Info                 : Advanced Video Codec
Format profile              : [email protected]
Format settings, CABAC      : Yes
Format settings, ReFrames   : 8 frames
Codec ID                    : V_MPEG4/ISO/AVC
Duration                    : 2 h 34 min
Bit rate                    : 4 735 kb/s
Width                       : 960 pixels
Height                      : 410 pixels
Display aspect ratio        : 2.35:1
Frame rate mode             : Constant
Frame rate                  : 23.976 (24000/1001) FPS
Color space                 : YUV
Chroma subsampling          : 4:2:0
Bit depth                   : 8 bits
Scan type                   : Progressive
Bits/(Pixel*Frame)          : 0.502
Stream size                 : 5.11 GiB (88%)
Title                       : Холодна гора / Cold Mountain (2003) AVC [Leonardo]
Writing library             : core 125 r2208 d9d2288
Encoding settings           : cabac=1 / ref=8 / deblock=1:-3:-3 / analyse=0x3:0x133 / me=umh / subme=11 / psy=1 / psy_rd=1.00:0.00 / mixed_ref=1 / me_range=32 / chroma_me=1 / trellis=2 / 8x8dct=1 / cqm=0 / deadzone=21,11 / fast_pskip=0 / chroma_qp_offset=-2 / threads=12 / lookahead_threads=2 / sliced_threads=0 / nr=0 / decimate=1 / interlaced=0 / bluray_compat=0 / constrained_intra=0 / bframes=8 / b_pyramid=2 / b_adapt=2 / b_bias=0 / direct=1 / weightb=1 / open_gop=0 / weightp=2 / keyint=250 / keyint_min=23 / scenecut=40 / intra_refresh=0 / rc=crf / mbtree=0 / crf=17.5 / qcomp=0.60 / qpmin=0 / qpmax=69 / qpstep=4 / ip_ratio=1.40 / pb_ratio=1.30 / aq=2:1.00
Language                    : English
Default                     : Yes
Forced                      : No

Audio #1
ID                          : 2
Format                      : AC-3
Format/Info                 : Audio Coding 3
Format settings, Endianness : Big
Codec ID                    : A_AC3
Duration                    : 2 h 34 min
Bit rate mode               : Constant
Bit rate                    : 192 kb/s
Channel(s)                  : 2 channels
Channel positions           : Front: L R
Sampling rate               : 48.0 kHz
Frame rate                  : 31.250 FPS (1536 spf)
Bit depth                   : 16 bits
Compression mode            : Lossy
Stream size                 : 212 MiB (4%)
Title                       : MVO [Inter, VHS] 2.0 192 Kbps [Hurtom-robotron005,gudyma_s]
Language                    : Ukrainian
Service kind                : Complete Main
Default                     : Yes
Forced                      : Yes

Audio #2
ID                          : 3
Format                      : AC-3
Format/Info                 : Audio Coding 3
Format settings, Endianness : Big
Codec ID                    : A_AC3
Duration                    : 2 h 34 min
Bit rate mode               : Constant
Bit rate                    : 448 kb/s
Channel(s)                  : 6 channels
Channel positions           : Front: L C R, Side: L R, LFE
Sampling rate               : 48.0 kHz
Frame rate                  : 31.250 FPS (1536 spf)
Bit depth                   : 16 bits
Compression mode            : Lossy
Stream size                 : 495 MiB (8%)
Title                       : Original, 5.1 448 Kbps
Language                    : English
Service kind                : Complete Main
Default                     : No
Forced                      : No

Text
ID                          : 4
Format                      : UTF-8
Codec ID                    : S_TEXT/UTF8
Codec ID/Info               : UTF-8 Plain Text
Duration                    : 2 h 33 min
Bit rate                    : 45 b/s
Count of elements           : 1562
Stream size                 : 50.9 KiB (0%)
Language                    : English
Default                     : No
Forced                      : No

Menu
00:00:00.000                : en:The Siege of Petersburg
00:05:21.529                : en:"Inman Speaks"
00:09:12.718                : en:"It's a Turkey Shoot!"
00:14:39.670                : en:Play Something Sweet
00:16:56.223                : en:"If it Were Enough Just to Stand"
00:22:45.781                : en:Heroes for the Cause
00:27:43.703                : en:"We Got Our War!"
00:34:15.844                : en:Bitter Chapters of Time
00:41:54.929                : en:Back to Cold Mountain
00:46:21.612                : en:Ada at the Well
00:49:44.314                : en:"My Name Is Ruby Thewes"
00:52:21.888                : en:"I'm a Man of God"
00:54:48.284                : en:Black Cove Catastrophe
00:56:59.498                : en:Ferry Crossing
01:01:04.535                : en:"You Never Wrapped Your Legs Around This Inman?"
01:05:10.113                : en:"The Tribes of Israel Are About to Flee!"
01:13:08.634                : en:Chain Gang
01:19:25.761                : en:"This World Won't Stand Long"
01:23:37.429                : en:"A Design for Each and Every One of Us"
01:28:59.000                : en:"Ruby With the Eyes That Sparkle"
01:35:46.448                : en:"Lie Here Next to Me"
01:46:48.402                : en:"Yankees Are Coming!"
01:52:12.559                : en:"A Cloud Over the Land"
02:00:43.611                : en:Lost and Found
02:08:43.507                : en:"I Marry You, I Marry You, I Marry You"
02:16:18.170                : en:"There Will Be a Reckoning"
02:24:21.235                : en:Making Peace with the Past
02:27:31.174                : en:End Credits

Код:
[info]: frame I:1777 Avg QP:17.81 size: 94408
[info]: frame P:50193 Avg QP:19.35 size: 45617
[info]: frame B:170190 Avg QP:21.60 size: 17783
[info]: consecutive B-frames: 2.6% 1.5% 8.5% 22.5% 27.0% 34.7% 1.9% 0.9% 0.5%
[info]: mb I I16..4: 5.2% 64.0% 30.8%
[info]: mb P I16..4: 0.5% 15.9% 2.4% P16..4: 24.9% 29.1% 18.0% 4.9% 0.7% skip: 3.5%
[info]: mb B I16..4: 0.0% 3.4% 0.3% B16..8: 35.1% 20.2% 5.3% direct:10.4% skip:25.2% L0:37.5% L1:40.5% BI:22.0%
[info]: 8x8 transform intra:84.8% inter:46.2%
[info]: coded y,uvDC,uvAC intra: 97.2% 84.2% 61.0% inter: 42.5% 19.5% 2.6%
[info]: i16 v,h,dc,p: 31% 12% 10% 47%
[info]: i8 v,h,dc,ddl,ddr,vr,hd,vl,hu: 9% 8% 16% 9% 12% 11% 12% 11% 13%
[info]: i4 v,h,dc,ddl,ddr,vr,hd,vl,hu: 11% 6% 7% 10% 14% 13% 13% 12% 14%
[info]: i8c dc,h,v,p: 42% 24% 17% 18%
[info]: Weighted P-Frames: Y:11.0% UV:5.9%
[info]: ref P L0: 43.4% 11.1% 19.2% 7.4% 6.7% 4.4% 4.4% 2.7% 0.5% 0.0%
[info]: ref B L0: 82.6% 8.4% 3.6% 2.3% 1.5% 1.1% 0.5%
[info]: ref B L1: 96.6% 3.4%
[info]: kb/s:4734.72
Ще скріншоти:


Джерело: &
Подяка за українську доріжку п.robotron005 (зведення) та п.gudyma_s (запис з ТБ та постер)


Срібний реліз (на рейтинг впливає 50% завантаженого)
 Трекер:    Зареєстрований   

Завантажити / скачати фільм українською



відео для новачків



 Зареєстрований:   2017-05-06 20:43
 Розмір:   5.8 GB 
 Оцінка фільму:   4.7/10 (Голосів: 17)
   
Інші релізи
   Холодна гора / Cold Mountain (2003) 720p Ukr/Eng | Sub Eng igor911  10 / 0   10.6 GB   2017-05-05 21:50 
   Холодна гора / Cold Mountain (2003) robotron005  21 / 0   1.92 GB   2017-05-04 17:38 
kinoreliz 
Новенький


З нами з: 05.04.12
Востаннє: 28.05.17
Повідомлень: 21

2017-05-06 20:08  
Коли ж буде представлено безпосередньо реліз?
Anonymous 







2017-05-06 20:09  
kinoreliz, протягом години.
bot 
робот


З нами з: 30.09.07
Востаннє: 26.05.05
Повідомлень: 16932

2017-05-06 20:43  
Тему перенесено з Анонси релізів до форуму Фільми в HD


igor911

Ваш часовий пояс: GMT + 2 Години

Нова тема   Відповісти