До сходу сонця / Before Sunrise (1995) 1080p [REMASTERED] Ukr/Eng | Sub Eng

Нові коментарі

Нова тема   Відповісти
Автор Повідомлення
Anonymous 







2017-05-06 00:01  
До сходу сонця / Before Sunrise (1995) 1080p [REMASTERED] Ukr/Eng | Sub Eng

До сходу сонця / Before Sunrise (1995) 1080p [REMASTERED] Ukr/Eng | Sub Eng


Жанр: драма, романтичний
Країна: США



Кінокомпанія: Castle Rock Entertainment, Detour Filmproduction, Filmhaus Wien Universa Filmproduktions
Режисер: Річард Лінклейтер
Актори: Ітан Гоук, Жюлі Делпі, Андреа Екерт, Емі Менголд та інші

Сюжет:
Фільм показує американця Джессі (Ітан Хоук), який їде до Відня, щоб там сісти на літак до Америки, і француженку Селін (Жюлі Делпі), на шляху до Парижа, щоб стати студенткою в Сорбонні. Вони зустрічаються в потязі, і після бесіди в вагоні-ресторані, Джессі переконує Селін зійти з поїзда у Відні, щоб провести вечір і ніч разом.

У фільмі немає майже нічого, крім діалогів про життя, кохання, перевтілення і т. д. Основна дія у фільмі відбувається протягом усього лише однієї романтичної ночі у Відні. В кінці фільму головні герої розлучаються, домовившись зустрітися на місці прощання через 6 місяців.


Тривалість: 01:41:05
Якість: 1080p [REMASTERED]
Відео:
кодек:
розмір кадру: 1920 х 1040
бітрейт: 12.4 Мб/с

Аудіо # 1:
мова: українська
переклад: багатоголосий закадровий
кодек: 2.0
бітрейт: 192 кб/с

Аудіо # 2:
мова: англійська
переклад: оригінал
кодек: 2.0
бітрейт: 1509 кб/с

Джерело озвучення:


Субтитри:
мова: українська (на неозвучені епізоди)
тип: програмні (м'які)
формат: *.srt
Переклад: wrongman

Субтитри:
мова: англійська (Regular)
тип: програмні (м'які)
формат: *.srt

Субтитри:
мова: англійська (SDH)
тип: програмні (м'які)
формат: *.srt
Info

General
Unique ID : 177203891134778668184873782490118971828 (0x85503A5F821E3FC6BB17315449DF61B4)
Complete name : C:\Before Sunrise (1995) 1080p [REMASTERED] [Ukr.Eng Sub.Eng] [Hurtom].
Format :
Format version : Version 4 / Version 2
File size : 9.96 GiB
Duration : 1 h 41 min
Overall bit rate : 14.1 Mb/s
Movie name : Before Sunrise (1995) 1080p [REMASTERED] [Ukr.Eng Sub.Eng] [Hurtom]
Encoded date : UTC 2017-05-06 16:58:18
Writing application : v6.1.0 ('Old Devil') built on Mar 2 2013 14:32:37
Writing library : libebml v1.3.0 + v1.4.0

Video
ID : 1
Format : AVC
Format/Info : Advanced Video Codec
Format profile : [email protected]
Format settings, CABAC : Yes
Format settings, ReFrames : 4 frames
Codec ID : V_MPEG4/ISO/AVC
Duration : 1 h 41 min
Bit rate : 12.4 Mb/s
Width : 1 920 pixels
Height : 1 040 pixels
Display aspect ratio : 1.85:1
Frame rate mode : Constant
Frame rate : 23.976 (24000/1001) FPS
Color space : YUV
Chroma subsampling : 4:2:0
Bit depth : 8 bits
Scan type : Progressive
Bits/(Pixel*Frame) : 0.259
Stream size : 8.56 GiB (86%)
Title : Before Sunrise (1995) 1080p [REMASTERED] [Ukr.Eng Sub.Eng] [Hurtom]
Writing library : core 148 r2744 b97ae06
Encoding settings : cabac=1 / ref=4 / deblock=1:-3:-3 / analyse=0x3:0x113 / me=umh / subme=8 / psy=1 / psy_rd=1.00:0.00 / mixed_ref=1 / me_range=16 / chroma_me=1 / trellis=1 / 8x8dct=1 / cqm=0 / deadzone=21,11 / fast_pskip=1 / chroma_qp_offset=-2 / threads=30 / lookahead_threads=5 / sliced_threads=0 / nr=0 / decimate=1 / interlaced=0 / bluray_compat=0 / constrained_intra=0 / bframes=3 / b_pyramid=2 / b_adapt=1 / b_bias=0 / direct=3 / weightb=1 / open_gop=0 / weightp=2 / keyint=240 / keyint_min=24 / scenecut=40 / intra_refresh=0 / rc_lookahead=50 / rc=2pass / mbtree=1 / bitrate=12408 / ratetol=1.0 / qcomp=0.60 / qpmin=0 / qpmax=69 / qpstep=4 / cplxblur=20.0 / qblur=0.5 / ip_ratio=1.40 / aq=1:1.00
Language : English
Default : Yes
Forced : No

Audio #1
ID : 2
Format : AC-3
Format/Info : Audio Coding 3
Format settings, Endianness : Big
Codec ID : A_AC3
Duration : 1 h 41 min
Bit rate mode : Constant
Bit rate : 192 kb/s
Channel(s) : 2 channels
Channel positions : Front: L R
Sampling rate : 48.0 kHz
Frame rate : 31.250 FPS (1536 spf)
Bit depth : 16 bits
Compression mode : Lossy
Stream size : 139 MiB (1%)
Title : MVO | Novy Kanal | 2.0 | 192 kb/s
Language : Ukrainian
Service kind : Complete Main
Default : Yes
Forced : No

Audio #2
ID : 3
Format :
Format/Info : Digital Theater Systems
Mode : 16
Format settings, Endianness : Big
Codec ID : A_DTS
Duration : 1 h 41 min
Bit rate mode : Constant
Bit rate : 1 509 kb/s
Channel(s) : 2 channels
Channel positions : Front: L R
Sampling rate : 48.0 kHz
Frame rate : 93.750 FPS (512 spf)
Bit depth : 24 bits
Compression mode : Lossy
Stream size : 1.07 GiB (11%)
Title : Original
Language : English
Default : No
Forced : No

Text #1
ID : 4
Format : UTF-8
Codec ID : S_TEXT/UTF8
Codec ID/Info : UTF-8 Plain Text
Language : Ukrainian
Default : Yes
Forced : No

Text #2
ID : 5
Format : UTF-8
Codec ID : S_TEXT/UTF8
Codec ID/Info : UTF-8 Plain Text
Title : Regular
Language : English
Default : No
Forced : No

Text #3
ID : 6
Format : UTF-8
Codec ID : S_TEXT/UTF8
Codec ID/Info : UTF-8 Plain Text
Title : SDH
Language : English
Default : No
Forced : No
Скріншоти










Джерело:
Подяки:
За опис та сихронізацію доріжки під - дякую drop_plz
За українську доріжку та сихронізацію - дякую Merdiff та wrongman
Також дякую всім іншим кого забув вказати.
Особиста оцінка: 10 - без зайвих вагань рекомендую всім!

R - рейтинг стрічки, встановлений Американською асоціацією кінокомпаній

MPAA, англ. Motion Picture Association of America - Американська асоціація кінокомпаній

Рейтинг R — Restricted
Підлітки до 18 років допускаються на фільм тільки у супроводі одного з батьків, або їхнього законного представника.

Обмеження — до 18 років потрібний супровід одного з батьків або дорослого опікуна (вік може змінюватися в деяких регіонах). Даний рейтинг показує, що оціночна комісія вирішила, що деякий матеріал цього фільму призначається для дорослих. Батьки повинні більше дізнатися про фільм перш, ніж узяти на його перегляд дітей. Рейтинг R також може бути призначений через використовувану у фільмі мову, теми насильства, сексу або зображення вживання наркотиків.


Продовження:




Не забуваємо дякувати!


Срібний реліз (на рейтинг впливає 50% завантаженого)
 Трекер:    Зареєстрований   

Завантажити / скачати фільм українською



відео для новачків



 Зареєстрований:   2017-05-06 19:40
 Розмір:   9.96 GB 
 Оцінка фільму:   8.8/10 (Голосів: 6)
   
Інші релізи
bot 
робот


З нами з: 30.09.07
Востаннє: 26.05.05
Повідомлень: 20349

2017-05-06 18:51  
Тему перенесено з Анонси релізів до форуму Фільми в HD


Pegass

[email protected] 
Поважний учасник


З нами з: 24.03.17
Востаннє: 15.12.18
Повідомлень: 178

2018-10-12 19:38  
Чудовий фільм))))

Додано через 1 годину 9 хвилин 53 секунди:

Станьте хтось на роздачу пліззз)))

Ваш часовий пояс: GMT + 2 Години

Нова тема   Відповісти