Кубо і Легенда самурая / Kubo and the Two Strings (2016) Remux 1080p Ukr/Eng | Sub Eng

Нові коментарі

Нова тема   Відповісти
Автор Повідомлення
Anonymous 







2017-05-05 19:17  
Кубо і Легенда самурая / Kubo and the Two Strings (2016) Remux 1080p Ukr/Eng | Sub Eng



Жанр: анімація, фентезі, пригодницький, сімейний
Країна: США

Премія Британської кіноакадемії (BAFTA) за Найкращий анімаційний фільм



Кінокомпанія: Laika Entertainment
Режисер: Тревіс Найт / Travis Knight
Актори: Арт Паркінсон / Art Parkinson, Шарліз Терон / Charlize Theron, Ральф Файнс / Ralph Fiennes, Кері-Гіроюкі Таґава / Cary-Hiroyuki Tagawa, Джордж Такей / George Takei, Руні Мара / Rooney Mara, Меттью МакКонахі / Matthew McConaughey, Міна Нодзі / Minae Noji, Бренда Ваккаро / Brenda Vaccaro, Мейрік Мерфі / Meyrick Murphy та інші

Сюжет:
Епічна анімаційна пригода розпочинається в оповитій таємницею японській провінції: розумний і відважний Кубо живе звичайним життям, не підозрюючи, що він спадкоємець славного роду самураїв. Духи помсти, які з’являються мов грім серед неба, змушують юного бійця кинути виклик долі. З допомогою досвідчених Хранителів: Мавпи і Жука, хлопець будь-що має розгадати таємницю своєї спадщини і виконати своє призначення...

Українські трейлери:





Рейтинг MPAA: PG - рекомендується присутність батьків
Вікова категорія: 6+

Тривалість: 01:41:36
Якість: Remux
Відео:
кодек:
розмір кадру: 1920 х 1080
бітрейт: 34716 кб/с

Аудіо # 1:
мова: українська
переклад: професійний дубльований
кодек: 2.0
бітрейт: 192 кб/с

Аудіо # 2:
мова: англійська
переклад: оригінал
кодек: -HD MA 5.1
бітрейт: 3741 кб/с

Аудіо # 3:
мова: англійська
переклад: описова
кодек: 2.0
бітрейт: 192 кб/с

Аудіо # 4:
мова: англійська
переклад: коментарі режисера та продюсера Тревіса Найта
кодек: 2.0
бітрейт: 192 кб/с

Субтитри # 1:
мова: англійська (SDH)
тип: пререндерні
формат: PGS

Збережено оригінальні розділи, як на Blu-ray
Info
Код:
Complete name               : Kubo and the Two Strings (2016) [Ukr,Eng sub.Eng] Remux 1080p [Hurtom].
Format                      :
Format version              : Version 4 / Version 2
File size                   : 27.7 GiB
Duration                    : 1 h 41 min
Overall bit rate mode       : Variable
Overall bit rate            : 39.0 Mb/s
Movie name                  : Кубо і Легенда самурая / Kubo and the Two Strings (2016) [Ukr,Eng sub.Eng] Remux 1080p [Hurtom]
Released date               : 2016
Cover                       : Yes
Comment                     : http://www.imdb.com/title/tt4302938/
Attachments                 : cover.jpg
ARTIST                      : Арт Паркінсон / Art Parkinson, Шарліз Терон / Charlize Theron, Ральф Файнс / Ralph Fiennes, Кері-Гіроюкі Таґава / Cary-Hiroyuki Tagawa, Джордж Такей / George Takei, Руні Мара / Rooney Mara, Меттью МакКонахі / Matthew McConaughey, Міна Нодзі / Minae Noji, Бренда Ваккаро / Brenda Vaccaro, Мейрік Мерфі / Meyrick Murphy та інші
DIRECTOR                    : Тревіс Найт / Travis Knight
GENRE                       : анімація, фентезі, пригодницький, сімейний
SYNOPSIS                    : Епічна анімаційна пригода розпочинається в оповитій таємницею японській провінції: розумний і відважний Кубо живе звичайним життям, не підозрюючи, що він спадкоємець славного роду самураїв. Духи помсти, які з’являються мов грім серед неба, змушують юного бійця кинути виклик долі. З допомогою досвідчених Хранителів: Мавпи і Жука, хлопець будь-що має розгадати таємницю своєї спадщини і виконати своє призначення.
Url                         : https://toloka.to/t81755

Video
ID                          : 1
Format                      : AVC
Format/Info                 : Advanced Video Codec
Format profile              : [email protected]
Format settings, CABAC      : Yes
Format settings, ReFrames   : 4 frames
Codec ID                    : V_MPEG4/ISO/AVC
Duration                    : 1 h 41 min
Bit rate mode               : Variable
Bit rate                    : 34.7 Mb/s
Maximum bit rate            : 37.0 Mb/s
Width                       : 1 920 pixels
Height                      : 1 080 pixels
Display aspect ratio        : 16:9
Frame rate mode             : Constant
Frame rate                  : 23.976 (24000/1001) FPS
Color space                 : YUV
Chroma subsampling          : 4:2:0
Bit depth                   : 8 bits
Scan type                   : Progressive
Bits/(Pixel*Frame)          : 0.698
Stream size                 : 24.6 GiB (89%)
Title                       : Кубо і Легенда самурая / Kubo and the Two Strings (2016) Remux 1080p [HDClub]
Language                    : English
Default                     : Yes
Forced                      : No

Audio #1
ID                          : 2
Format                      : AC-3
Format/Info                 : Audio Coding 3
Format settings, Endianness : Big
Codec ID                    : A_AC3
Duration                    : 1 h 41 min
Bit rate mode               : Constant
Bit rate                    : 192 kb/s
Channel(s)                  : 2 channels
Channel positions           : Front: L R
Sampling rate               : 48.0 kHz
Frame rate                  : 31.250 FPS (1536 spf)
Bit depth                   : 16 bits
Compression mode            : Lossy
Stream size                 : 140 MiB (0%)
Title                       : Dub [Line], 2.0 192 Kbps [Hurtom-Covenant]
Language                    : Ukrainian
Service kind                : Complete Main
Default                     : Yes
Forced                      : Yes

Audio #2
ID                          : 3
Format                      :
Format/Info                 : Digital Theater Systems
Format profile              : MA / Core
Mode                        : 16
Format settings, Endianness : Big
Codec ID                    : A_DTS
Duration                    : 1 h 41 min
Bit rate mode               : Variable / Constant
Bit rate                    : 3 741 kb/s / 1 509 kb/s
Channel(s)                  : 6 channels
Channel positions           : Front: L C R, Side: L R, LFE
Sampling rate               : 48.0 kHz
Frame rate                  : 93.750 FPS (512 spf)
Bit depth                   : 24 bits
Compression mode            : Lossless / Lossy
Stream size                 : 2.65 GiB (10%)
Title                       : Original, -HD MA 5.1 3741 Kbps
Language                    : English
Default                     : No
Forced                      : No

Audio #3
ID                          : 4
Format                      : AC-3
Format/Info                 : Audio Coding 3
Mode                        : Dolby Digital
Format settings, Endianness : Big
Codec ID                    : A_AC3
Duration                    : 1 h 41 min
Bit rate mode               : Constant
Bit rate                    : 192 kb/s
Channel(s)                  : 2 channels
Channel positions           : Front: L R
Sampling rate               : 48.0 kHz
Frame rate                  : 31.250 FPS (1536 spf)
Bit depth                   : 16 bits
Compression mode            : Lossy
Stream size                 : 140 MiB (0%)
Title                       : Descriptive
Language                    : English
Service kind                : Complete Main
Default                     : No
Forced                      : No

Audio #4
ID                          : 5
Format                      : AC-3
Format/Info                 : Audio Coding 3
Mode                        : Dolby Digital
Format settings, Endianness : Big
Codec ID                    : A_AC3
Duration                    : 1 h 41 min
Bit rate mode               : Constant
Bit rate                    : 192 kb/s
Channel(s)                  : 2 channels
Channel positions           : Front: L R
Sampling rate               : 48.0 kHz
Frame rate                  : 31.250 FPS (1536 spf)
Bit depth                   : 16 bits
Compression mode            : Lossy
Stream size                 : 140 MiB (0%)
Title                       : Audio Commentary with Director/Producer Travis Knight
Language                    : English
Service kind                : Complete Main
Default                     : No
Forced                      : No

Text
ID                          : 6
Format                      : PGS
Muxing mode                 : zlib
Codec ID                    : S_HDMV/PGS
Codec ID/Info               : Picture based subtitle format used on BDs/HD-DVDs
Duration                    : 1 h 32 min
Bit rate                    : 10.3 kb/s
Count of elements           : 2482
Stream size                 : 6.79 MiB (0%)
Title                       : Eng SDH
Language                    : English
Default                     : No
Forced                      : No

Menu
00:00:00.000                : en:Chapter 1
00:02:56.508                : en:Chapter 2
00:07:10.637                : en:Chapter 3
00:12:08.894                : en:Chapter 4
00:17:19.954                : en:Chapter 5
00:21:40.798                : en:Chapter 6
00:25:58.390                : en:Chapter 7
00:32:11.554                : en:Chapter 8
00:36:58.047                : en:Chapter 9
00:42:33.509                : en:Chapter 10
00:47:48.657                : en:Chapter 11
00:50:47.668                : en:Chapter 12
00:56:48.947                : en:Chapter 13
01:02:56.313                : en:Chapter 14
01:08:28.270                : en:Chapter 15
01:12:40.604                : en:Chapter 16
01:20:00.628                : en:Chapter 17
01:24:22.265                : en:Chapter 18
01:28:46.069                : en:Chapter 19
01:32:49.564                : en:Chapter 20

Підтримати придбання українських доріжок можна тут



Джерело: &
Подяка за українську доріжку п.Covenant


Золотий реліз (завантажене не впливає на рейтинг)
 Трекер:    Зареєстрований   

Завантажити / скачати мультфільм українською



відео для новачків



 Зареєстрований:   2017-05-05 20:45
 Розмір:   27.7 GB 
 Оцінка мультфільму:   4.4/10 (Голосів: 19)
   
Ваш часовий пояс: GMT + 2 Години

Нова тема   Відповісти