Фатальна красуня / Hors de prix (2006) 1080p 2xUkr/Fra

Нові коментарі

Нова тема   Відповісти
Автор Повідомлення
Pegass 
VIP


З нами з: 17.12.09
Востаннє: 24.08.17
Повідомлень: 519

2017-05-04 21:22  
Фатальна красуня / Hors de prix (2006) 1080p 2xUkr/Fra

Фатальна красуня / Hors de prix (2006) 1080p 2xUkr/Fra


Жанр: комедія, романтичний
Країна: Франція



Кінокомпанія: Canal+, France 2 Cinéma, France 3 Cinéma, Les Films Pelléas
Режисер: П'єр Cальвадорі
Актори: Одрі Тоту (Audrey Tautou), Гад Ельмале, Марі-Крістін Адам, Вернон Добтчеф, Жак Спісер, Анліз Хем

Сюжет:
Авантюристка Ірен приймає скромного готельного службовця Жана за мільярдера. Викривши свою помилковість, вона миттєво його кидає. Одначе закоханий Жан майнує за нею слідом. Його накопичення швидко добігають кінця, і від відчаю Жан приймає пропозицію стати супроводжуючим немолодої, та від того надзвичайно забезпеченої пані. Нове становище знов зближує його з Ірен, яка зрештою упокорюється з присутністю Жана. Вона допомагає Жанові радою, і сама, не усвідомлюючи цього, починає все більше прив’язуватися до нього.


Тривалість: 01:45:54
Якість: 1080p
Відео:
кодек:
розмір кадру: 1920 х 808
бітрейт: 11.0 Мб/с

Аудіо # 1:
мова: українська
переклад: двоголосий закадровий
кодек: 5.1
бітрейт: 448 кб/с

Аудіо # 2:
мова: українська
переклад: багатоголосий закадровий
кодек: 2.0
бітрейт: 192 кб/с

Аудіо # 3:
мова: французька
переклад: оригінал
кодек: 5.1
бітрейт: 1 510кб/с

Джерело озвучення:
/
Info
General
Unique ID : 243781556185060785505882683512862697002 (0xB7669EB169D0E9BABABA5649B22A662A)
Format :
Format version : Version 4 / Version 2
File size : 9.91 GiB
Duration : 1 h 45 min
Overall bit rate : 13.4 Mb/s
Encoded date : UTC 2017-05-04 17:52:27
Writing application : mkvmerge v6.1.0 ('Old Devil') built on Mar 2 2013 14:32:37
Writing library : libebml v1.3.0 + libmatroska v1.4.0

Video
ID : 1
Format : AVC
Format/Info : Advanced Video Codec
Format profile : [email protected]
Format settings, CABAC : Yes
Format settings, ReFrames : 4 frames
Codec ID : V_MPEG4/ISO/AVC
Duration : 1 h 45 min
Bit rate : 11.0 Mb/s
Width : 1 920 pixels
Height : 808 pixels
Display aspect ratio : 2.40:1
Frame rate mode : Constant
Frame rate : 23.976 FPS
Color space : YUV
Chroma subsampling : 4:2:0
Bit depth : 8 bits
Scan type : Progressive
Bits/(Pixel*Frame) : 0.297
Stream size : 8.17 GiB (82%)
Title : Hors de prix (2006) 1080p [2xUkr.Fra] [Hurtom]
Writing library : core 67 r1130M 8475977
Encoding settings : cabac=1 / ref=4 / deblock=1:-1:-1 / analyse=0x3:0x113 / me=esa / subme=8 / psy_rd=1.3:0.3 / mixed_ref=0 / me_range=16 / chroma_me=1 / trellis=2 / 8x8dct=1 / cqm=0 / deadzone=21,11 / chroma_qp_offset=-4 / threads=3 / nr=0 / decimate=0 / mbaff=0 / bframes=3 / b_pyramid=0 / b_adapt=2 / b_bias=0 / direct=1 / wpredb=1 / keyint=250 / keyint_min=25 / scenecut=40 / rc=crf / crf=22.0 / qcomp=0.60 / qpmin=10 / qpmax=51 / qpstep=4 / ip_ratio=1.40 / pb_ratio=1.30 / aq=1:0.90
Language : French
Default : Yes
Forced : No

Audio #1
ID : 2
Format : AC-3
Format/Info : Audio Coding 3
Format settings, Endianness : Big
Codec ID : A_AC3
Duration : 1 h 45 min
Bit rate mode : Constant
Bit rate : 384 kb/s
Channel(s) : 6 channels
Channel positions : Front: L C R, Side: L R, LFE
Sampling rate : 48.0 kHz
Frame rate : 31.250 FPS (1536 spf)
Bit depth : 16 bits
Compression mode : Lossy
Stream size : 291 MiB (3%)
Title : 1+1
Language : Ukrainian
Service kind : Complete Main
Default : Yes
Forced : No

Audio #2
ID : 3
Format : AC-3
Format/Info : Audio Coding 3
Format settings, Endianness : Big
Codec ID : A_AC3
Duration : 1 h 45 min
Bit rate mode : Constant
Bit rate : 192 kb/s
Channel(s) : 2 channels
Channel positions : Front: L R
Sampling rate : 48.0 kHz
Frame rate : 31.250 FPS (1536 spf)
Bit depth : 16 bits
Compression mode : Lossy
Stream size : 145 MiB (1%)
Title : K1
Language : Ukrainian
Service kind : Complete Main
Default : No
Forced : No

Audio #3
ID : 4
Format :
Format/Info : Digital Theater Systems
Mode : 16
Format settings, Endianness : Big
Codec ID : A_DTS
Duration : 1 h 45 min
Bit rate mode : Constant
Bit rate : 1 510 kb/s
Channel(s) : 6 channels
Channel positions : Front: L C R, Side: L R, LFE
Sampling rate : 48.0 kHz
Frame rate : 93.750 FPS (512 spf)
Bit depth : 24 bits
Compression mode : Lossy
Stream size : 1.12 GiB (11%)
Title : Original
Language : French
Default : No
Forced : No
Скріншоти






Джерело: &
Пану РОМЕО дякую за запис з К1
За доріжку від 1+1 дякую панам rooster, karvai0
За опис та зведення доріжки з К1 Arsenfpu
Особиста оцінка: 10 - без зайвих вагань рекомендую всім!


 Трекер:    Зареєстрований   

Завантажити / скачати фільм українською



відео для новачків



 Зареєстрований:   2017-05-04 21:26
 Розмір:   9.91 GB 
 Оцінка фільму:   9.8/10 (Голосів: 4)
   
Інші релізи
   Фатальна красуня / Hors de prix (2006) sokeel  1 / 0   746 MB   2016-09-19 11:08 
   Фатальна красуня / Hors de prix (2006) 2xUkr/Fra Arsenfpu  11 / 0   1.89 GB   2015-11-24 20:24 
   Фатальна красуня / Hors de prix (2006) 720p Ukr | sub Eng DеLight  1 / 0   4.23 GB   2011-10-30 23:58 
   Фатальна красуня / Hors de prix (2006) Ukr/Fra rooster  2 / 0   2.13 GB   2011-10-29 10:06 
WorldMaster 
Свій


З нами з: 10.10.11
Востаннє: 23.08.17
Повідомлень: 64

2017-05-05 15:49  
Дивився років 5 тому. Цікавий фільм, потішить ваш інтелект (якщо він є, а має бути якщо ви людина).
Tetiana27 
Новенький


З нами з: 12.08.16
Востаннє: 28.07.17
Повідомлень: 1

2017-06-08 22:18  
Тут можна дивитись фільми онлайн чи тільки скачувати? Не можу розібратись, допоможіть.
igor911 
Відео Гуртом
Відео Гуртом


З нами з: 18.01.08
Востаннє: 24.08.17
Повідомлень: 7345

2017-06-09 00:18  
Tetiana27, це торрент-трекер, тож файли знаходяться ЛИШЕ у користувачів трекера, їх треба завантажувати, а завантаживши - не видаляти одразу, а деякий час (якомога довше) тримати в клієнті на роздачі, щоб наступні користувачі теж їх могли завантажити.
Tetiana27 написано:
Віддано: 0 B +0 B
Рейтинг: 0
- ось це дуже сумно, це означає, що ви нічого не роздавали, а одразу зупиняли чи видаляли завантажене ...

https://toloka.to/faq.php

Однак існує і можливість онлайн-перегляду (паралельно з завантаженням на свій комп) https://toloka.to/t76883

Ваш часовий пояс: GMT + 2 Години

Нова тема   Відповісти