Холодна гора / Cold Mountain (2003) 720p Ukr/Eng | Sub Eng

Нові коментарі

Нова тема   Відповісти
Автор Повідомлення
Anonymous 







2017-05-04 18:59  
Холодна гора / Cold Mountain (2003) 720p Ukr/Eng | Sub Eng

Холодна гора / Cold Mountain (2003) 720p Ukr/Eng | Sub Eng


Жанр: драма, мелодрама, військовий, пригодницький, історичний
Країна: США, Велика Британія, Італія, Румунія

Оскар, Золотий глобус, премії BAFTA та Гільдії акторів за Найкращу жіночу другорядну роль Рене Зелвеґер



Кінокомпанія: Miramax, Mirage Enterprises, Bona Fide Productions, Castel Film Romania, Cattleya Films
Режисер: Ентоні Мінґелла / Anthony Minghella
Актори: Джуд Лоу / Jude Law, Ніколь Кідмен / Nicole Kidman, Рене Зелвеґер / Renée Zellweger, Наталі Портман / Natalie Portman, Філіп Сеймур Гофмен / Philip Seymour Hoffman, Брендан Ґлісон / Brendan Gleeson, Ейлін Аткінс / Eileen Atkins, Рей Вінстон / Ray Winstone, Дональд Сазерленд / Donald Sutherland, Джованні Рібізі / Giovanni Ribisi, Кеті Бейкер / Kathy Baker та інші

Сюжет:
Кривавий період Громадянської війни в США: американський конфедерат Інман намагається дістатися з лінії фронту додому, в Холодну Гору (штат Північна Кароліна), де залишив свою кохану Аду.
Ада намагається вижити одна в розореному тилу. На допомогу їй приходить бродяга Рубі, яка вчить світську панночку азам господарювання ...


Тривалість: 02:34:26
Якість: 720p
Відео:
кодек:
розмір кадру: 1280 х 548
бітрейт: 9000 кб/с

Аудіо # 1:
мова: українська
переклад: багатоголосий закадровий
кодек: 2.0
бітрейт: 192 кб/с

Аудіо # 2:
мова: англійська
переклад: оригінал
кодек: 5.1
бітрейт: 640 кб/с

Субтитри:
мова: англійська
тип: програмні (м'які)
формат: *.srt

Збережено оригінальні розділи, як на Blu-ray
Info та log
Код:
Complete name               : Cold Mountain (2003) [Ukr,Eng sub.Eng] 720p [Hurtom].
Format                      :
Format version              : Version 4 / Version 2
File size                   : 10.6 GiB
Duration                    : 2 h 34 min
Overall bit rate            : 9 831 kb/s
Movie name                  : Холодна гора / Cold Mountain (2003) [Ukr,Eng sub.Eng] 720p [Hurtom]
Released date               : 2003
Cover                       : Yes
Comment                     : http://www.imdb.com/title/tt0159365/
Attachments                 : cover.jpg / xlog.txt
ARTIST                      : Джуд Лоу / Jude Law, Ніколь Кідмен / Nicole Kidman, Рене Зелвеґер / Renée Zellweger, Наталі Портман / Natalie Portman, Філіп Сеймур Гофмен / Philip Seymour Hoffman, Брендан Ґлісон / Brendan Gleeson, Ейлін Аткінс / Eileen Atkins, Рей Вінстон / Ray Winstone, Дональд Сазерленд / Donald Sutherland, Джованні Рібізі / Giovanni Ribisi, Кеті Бейкер / Kathy Baker та інші
DIRECTOR                    : Ентоні Мінґелла / Anthony Minghella
GENRE                       : драма, мелодрама, військовий, пригодницький, історичний
SYNOPSIS                    : Кривавий період Громадянської війни в США: американський конфедерат Інман намагається дістатися з лінії фронту додому, в Холодну Гору (штат Північна Кароліна), де залишив свою кохану Аду.  / Ада намагається вижити одна в розореному тилу. На допомогу їй приходить бродяга Рубі, яка вчить світську панночку азам господарювання ...
Url                         : https://toloka.to/t81733

Video
ID                          : 1
Format                      : AVC
Format/Info                 : Advanced Video Codec
Format profile              : [email protected]
Format settings, CABAC      : Yes
Format settings, ReFrames   : 11 frames
Codec ID                    : V_MPEG4/ISO/AVC
Duration                    : 2 h 34 min
Bit rate                    : 9 000 kb/s
Width                       : 1 280 pixels
Height                      : 548 pixels
Display aspect ratio        : 2.35:1
Frame rate mode             : Constant
Frame rate                  : 23.976 (24000/1001) FPS
Color space                 : YUV
Chroma subsampling          : 4:2:0
Bit depth                   : 8 bits
Scan type                   : Progressive
Bits/(Pixel*Frame)          : 0.535
Stream size                 : 9.70 GiB (92%)
Title                       : Холодна гора / Cold Mountain (2003) 720p [HDClub-SbR, ESP Blu-ray]
Writing library             : core 142 r2431+42 c69a006 tMod [[email protected]:2:0 X86_64]
Encoding settings           : cabac=1 / ref=11 / deblock=1:-2:-2 / analyse=0x3:0x133 / me=umh / subme=11 / psy=1 / fade_compensate=0.00 / psy_rd=1.00:0.00 / mixed_ref=1 / me_range=32 / chroma_me=1 / trellis=2 / 8x8dct=1 / cqm=0 / deadzone=21,11 / fast_pskip=0 / chroma_qp_offset=-2 / threads=12 / lookahead_threads=3 / sliced_threads=0 / nr=0 / decimate=1 / interlaced=0 / bluray_compat=0 / constrained_intra=0 / fgo=0 / bframes=10 / b_pyramid=2 / b_adapt=2 / b_bias=0 / direct=3 / weightb=1 / open_gop=0 / weightp=2 / keyint=250 / keyint_min=23 / scenecut=40 / intra_refresh=0 / rc_lookahead=120 / rc=2pass / mbtree=1 / bitrate=9000 / ratetol=1.0 / qcomp=0.80 / qpmin=0:0:0 / qpmax=69:69:69 / qpstep=4 / cplxblur=20.0 / qblur=0.5 / vbv_maxrate=62500 / vbv_bufsize=78125 / nal_hrd=none / filler=0 / ip_ratio=1.10 / aq=4:0.70 / aq-sensitivity=11.00 / aq-factor=1.00:1.00:1.00 / aq2=1:0.60 / aq2-sensitivity=9.00 / aq2-factor=1.00:1.00:1.00 / aq3=1:[0.60:0.60]:[0.60:0.60]:[0.60:0.60]:[0.60:0.60] / aq3-sensitivity=10.00 / aq3-factor=[1.00:1.00]:[1.00:1.00]:[1.00:1.00] / aq3-boundary=192:64:24
Language                    : English
Default                     : Yes
Forced                      : No
Color range                 : Limited
Color primaries             : BT.709
Transfer characteristics    : BT.709
Matrix coefficients         : BT.709

Audio #1
ID                          : 2
Format                      : AC-3
Format/Info                 : Audio Coding 3
Format settings, Endianness : Big
Codec ID                    : A_AC3
Duration                    : 2 h 34 min
Bit rate mode               : Constant
Bit rate                    : 192 kb/s
Channel(s)                  : 2 channels
Channel positions           : Front: L R
Sampling rate               : 48.0 kHz
Frame rate                  : 31.250 FPS (1536 spf)
Bit depth                   : 16 bits
Compression mode            : Lossy
Stream size                 : 212 MiB (2%)
Title                       : MVO [Inter, VHS] 2.0 192 Kbps [Hurtom-robotron005,gudyma_s]
Language                    : Ukrainian
Service kind                : Complete Main
Default                     : Yes
Forced                      : Yes

Audio #2
ID                          : 3
Format                      : AC-3
Format/Info                 : Audio Coding 3
Format settings, Endianness : Big
Codec ID                    : A_AC3
Duration                    : 2 h 34 min
Bit rate mode               : Constant
Bit rate                    : 640 kb/s
Channel(s)                  : 6 channels
Channel positions           : Front: L C R, Side: L R, LFE
Sampling rate               : 48.0 kHz
Frame rate                  : 31.250 FPS (1536 spf)
Bit depth                   : 16 bits
Compression mode            : Lossy
Stream size                 : 707 MiB (7%)
Title                       : Original, 5.1 640 Kbps
Language                    : English
Service kind                : Complete Main
Default                     : No
Forced                      : No

Text
ID                          : 4
Format                      : UTF-8
Codec ID                    : S_TEXT/UTF8
Codec ID/Info               : UTF-8 Plain Text
Duration                    : 2 h 33 min
Bit rate                    : 49 b/s
Count of elements           : 1717
Stream size                 : 55.4 KiB (0%)
Title                       : Eng full
Language                    : English
Default                     : No
Forced                      : No

Menu
00:00:00.000                : en:"A Design for Each and Every One of Us"
00:05:21.154                : en:"This World Won't Stand Long"
00:09:12.343                : en:Chain Gang
00:14:39.295                : en:"The Tribes of Israel are About to Flee"
00:16:55.848                : en:"You Never Wrapped Your Legs Around This Inman"
00:22:45.406                : en:Ferry Crossing
00:27:43.328                : en:Black Cove Catastrophe
00:34:15.469                : en:"I'm a Man of God"
00:41:54.554                : en:"My Name Is Ruby Thewes"
00:46:21.237                : en:Ada at the Well
00:49:43.939                : en:Back to Cold Mountain
00:52:21.513                : en:Bitter Chapters of Time
00:54:47.909                : en:"We Got Our War!"
00:56:59.123                : en:Heroes for the Cause
01:01:04.160                : en:"If it Were Enough Just to Stand"
01:05:09.738                : en:Play Something Sweet
01:13:08.259                : en:"It's a Turkey Shoot!"
01:19:25.386                : en:"Inman Speaks"
01:23:37.054                : en:The Siege of Petersburg
01:28:58.625                : en:"Ruby with the Eyes That Sparkle"
01:35:46.073                : en:"Lie Here Next to Me"
01:46:48.027                : en:"Yankees are Coming"
01:52:12.184                : en:"A Cloud Over the Land"
02:00:43.236                : en:Lost and Found
02:08:43.132                : en:"I Marry You, I Marry You, I Marry You"
02:16:17.795                : en:"There Will Be a Reckoning"
02:24:20.860                : en:Making Peace with the Past
02:27:30.799                : en:End Credits

Код:
[info]: 1280x548p 1:1 @ 24000/1001 fps (cfr)
[info]: color matrix: bt709
[info]: using SAR=1/1
[info]: using cpu capabilities: MMX2 SSE2Fast SSSE3 SSE4.2 AVX
[info]: profile High, level 4.1
[info]: started at Sun Aug 03 19:55:18 2014
[info]: frame I:1572  Avg QP:18.93  size:118538
[info]: frame P:46084 Avg QP:19.95  size: 68898
[info]: frame B:174508 Avg QP:20.92  size: 40448
[info]: consecutive B-frames:  2.0%  3.6%  5.7% 14.7% 13.9% 43.1%  7.4%  1.6%  3.3%  2.7%  1.9%
[info]: mb I  I16..4:  5.1% 76.9% 18.0%
[info]: mb P  I16..4:  0.3% 15.6%  2.7%  P16..4: 25.8% 31.5% 15.6%  2.3%  0.2%    skip: 6.0%
[info]: mb B  I16..4:  0.0%  4.1%  1.2%  B16..8: 37.5% 23.9%  6.8%  direct:12.5%  skip:13.9%  L0:40.3% L1:40.6% BI:19.1%
[info]: 8x8 transform intra:79.8% inter:55.4%
[info]: direct mvs  spatial:96.6% temporal:3.4%
[info]: coded y,uvDC,uvAC intra: 90.5% 90.8% 72.1% inter: 60.7% 42.2% 11.3%
[info]: i16 v,h,dc,p: 38% 19%  9% 34%
[info]: i8 v,h,dc,ddl,ddr,vr,hd,vl,hu:  9%  8% 10% 10% 14% 12% 13% 11% 13%
[info]: i4 v,h,dc,ddl,ddr,vr,hd,vl,hu: 57%  3%  7%  4%  7%  6%  6%  5%  6%
[info]: i8c dc,h,v,p: 42% 23% 18% 17%
[info]: Weighted P-Frames: Y:2.0% UV:0.3%
[info]: ref P L0: 40.0% 10.7% 19.8%  7.3%  6.3%  4.2%  4.0%  2.0%  2.1%  1.6%  1.7%  0.2%  0.0%
[info]: ref B L0: 71.9% 12.6%  5.8%  3.1%  2.1%  1.7%  1.3%  0.8%  0.5%  0.2%
[info]: ref B L1: 92.7%  7.3%
[info]: kb/s:8996.20
[info]: encoded 222164 frames, 6.649 fps, 8996.20 kb/s, 9937.2 MB
[info]: ended at Mon Aug 04 05:12:13 2014
[info]: encoding duration 9:16:55
Ще скріншоти:


Джерело: &
Подяка за українську доріжку п.robotron005 (зведення) та п.gudyma_s (запис з ТБ та постер)


Срібний реліз (на рейтинг впливає 50% завантаженого)
 Трекер:    Зареєстрований   

Завантажити / скачати фільм українською



відео для новачків



 Зареєстрований:   2017-05-05 21:50
 Розмір:   10.6 GB 
 Оцінка фільму:   4.2/10 (Голосів: 16)
   
Інші релізи
   Холодна гора / Cold Mountain (2003) AVC Ukr/Eng | Sub Eng igor911  2 / 0   5.8 GB   2017-05-06 20:43 
   Холодна гора / Cold Mountain (2003) robotron005  4 / 0   1.92 GB   2017-05-04 17:38 
Ваш часовий пояс: GMT + 2 Години

Нова тема   Відповісти