VA - The Official Eurovision Song Contest Kyiv 2017 (2CD) (2017) [FLAC] | Pop

Нові коментарі

Нова тема   Відповісти
Автор Повідомлення
kolpavel 
VIP


З нами з: 04.05.14
Востаннє: 26.09.17
Повідомлень: 1169

2017-05-04 13:07  
VA - The Official Eurovision Song Contest Kyiv 2017 (2CD) (2017) [FLAC] | Pop

VA - The Official Eurovision Song Contest Kyiv 2017 (2CD) (2017) [FLAC] | Pop


Стиль: Pop
Країна, місто: Україна
Сайти: Офіційний сайт
Видавець: Universal Music Group (Каталог ID:0602557380019)
Треклист:
    CD1

    VA - The Official Eurovision Song Contest Kyiv 2017 (2CD) (2017) [FLAC] | Pop


    Треклист:
    01. Lindita (Albania) - World (2:57)
    02. Artsvik (Armenia) - Fly With Me (3:00)
    03. Isaiah (Australia) - Don't Come Easy (3:05)
    04. Nathan Trent (Austria) - Running on Air (2:48)
    05. Dihaj (Azerbaijan) - Skeletons (2:59)
    06. Blanche (Belgium) - City Lights (2:55)
    07. Kristian Kostov (Bulgaria) - Beautiful Mess (3:02)
    08. Naviband (Belarus) - Story of My Life (3:01)
    09. Timebelle (Switzerland) - Apollo (3:00)
    10. Hovig (Cyprus) - Gravity (3:01)
    11. Martina Bárta (Czech Republic) - My Turn (2:59)
    12. Levina (Germany) - Perfect Life (3:01)
    13. Anja Nissen (Denmark) - Where I Am (3:00)
    14. Manel Navarro (Spain) - Do it for Your Lover (3:02)
    15. Koit Toome & Laura (Estonia) - Verona (3:04)
    16. Norma John (Finland) - Blackbird (3:07)
    17. Alma (France) - Requiem (3:01)
    18. Lucie Jones (United Kingdom) - Never Give Up On You (3:01)
    19. Tamara Gachechiladze (Georgia) - Keep the Faith (2:59)
    20. Demy (Greece) - This Is Love (3:02)
    21. Jacques Houdek (Croatia) - My Friend (3:01)
    22. Joci Pápai (Hungary) - Origo (3:03)
    CD2

    VA - The Official Eurovision Song Contest Kyiv 2017 (2CD) (2017) [FLAC] | Pop


    Треклист:
    01. Brendan Murray (Ireland) - Dying to Try (3:00)
    02. Svala (Iceland) - Paper (3:00)
    03. Imri (Israel) - I Feel Alive (3:01)
    04. Francesco Gabbani (Italy) - Occidentali's Karma (3:05)
    05. Fusedmarc (Lithuania) - Rain of Revolution (3:07)
    06. Triana Park (Latvia) - Line (3:09)
    07. Sunstroke Project (Moldova) - Hey Mamma (3:01)
    08. Jana Burcheska (F.Y.R. Macedonia) - Dance Alone (3:07)
    09. Claudia Faniello (Malta) - Breathlessly (3:01)
    10. Slavko Kalezić (Montenegro) - Space (3:01)
    11. OG3NE (The Netherlands) - Lights and Shadows (3:01)
    12. JOWST (Norway) - Grab the Moment (2:56)
    13. Kasia Mos (Poland) - Flashlight (3:01)
    14. Salvador Sobral (Portugal) - Amar Pelos Dois (3:02)
    15. Ilinca feat. Alex Florea (Romania) - Yodel it! (2:57)
    16. Julia Samoylova (Russia) - Flame Is Burning (3:02)
    17. Valentina Monetta & Jimmie Wilson (San Marino) - Spirit of the Night (3:06)
    18. Tijana Bogićević (Serbia) - In Too Deep (3:07)
    19. Omar Naber (Slovenia) - On My Way (3:02)
    20. Robin Bengtsson (Sweden) - I Can't Go On (3:04)
    21. O.Torvald (Ukraine) - Time (3:05)

Тривалість: 02:10:03 (CD1 - 01:06:09, CD2 - 01:03:54)
Мова: англiйська крім: бiлоруська (1-8), іспанська (1-14), французька (1-17), угорська (1-22), iталiйська (2-4), португальська (2-14)
Аудіо-кодек: FLAC
Бітрейт: 758-1056 кб/с
Джерело: трекер
Додаткова інформація:
EAC CD1
Exact Audio Copy V1.3 from 2. September 2016

EAC extraction logfile from 28. April 2017, 12:30

Various Artists / Eurovision Song Contest Kyiv 2017 (CD 1)

Used drive : PLEXTOR CD-R PX-230A Adapter: 1 ID: 0

Read mode : Secure
Utilize accurate stream : Yes
Defeat audio cache : Yes
Make use of C2 pointers : No

Read offset correction : 738
Overread into Lead-In and Lead-Out : No
Fill up missing offset samples with silence : Yes
Delete leading and trailing silent blocks : No
Null samples used in CRC calculations : Yes
Used interface : Native Win32 interface for Win NT & 2000
Gap handling : Appended to previous track

Used output format : User Defined Encoder
Selected bitrate : 1024 kBit/s
Quality : High
Add ID3 tag : No
Command line compressor : C:\Program Files\Exact Audio Copy\Flac\flac.exe
Additional command line options : -6 -V -T "ARTIST=%artist%" -T "TITLE=%title%" -T "ALBUM=%albumtitle%" -T "DATE=%year%" -T "TRACKNUMBER=%tracknr%" -T "GENRE=%genre%" -T "COMMENT=%comment%" -T "ALBUMARTIST=%albuminterpret%" -T "COMPOSER=%composer%" -T "DISCNUMBER=%cdnumber%" -T "TOTALDISCS=%totalcds%" -T "TOTALTRACKS=%numtracks%" %source% -o %dest%

TOC of the extracted CD

Track | Start | Length | Start sector | End sector
---------------------------------------------------------
1 | 0:00.00 | 2:56.48 | 0 | 13247
2 | 2:56.48 | 2:59.43 | 13248 | 26715
3 | 5:56.16 | 3:04.61 | 26716 | 40576
4 | 9:01.02 | 2:47.61 | 40577 | 53162
5 | 11:48.63 | 2:59.36 | 53163 | 66623
6 | 14:48.24 | 2:55.13 | 66624 | 79761
7 | 17:43.37 | 3:01.59 | 79762 | 93395
8 | 20:45.21 | 3:00.68 | 93396 | 106963
9 | 23:46.14 | 2:59.61 | 106964 | 120449
10 | 26:46.00 | 3:01.03 | 120450 | 134027
11 | 29:47.03 | 2:59.23 | 134028 | 147475
12 | 32:46.26 | 3:01.02 | 147476 | 161052
13 | 35:47.28 | 3:00.28 | 161053 | 174580
14 | 38:47.56 | 3:01.72 | 174581 | 188227
15 | 41:49.53 | 3:03.54 | 188228 | 202006
16 | 44:53.32 | 3:07.11 | 202007 | 216042
17 | 48:00.43 | 3:00.55 | 216043 | 229597
18 | 51:01.23 | 3:01.36 | 229598 | 243208
19 | 54:02.59 | 2:59.12 | 243209 | 256645
20 | 57:01.71 | 3:02.00 | 256646 | 270295
21 | 60:03.71 | 3:01.31 | 270296 | 283901
22 | 63:05.27 | 3:03.35 | 283902 | 297661

Track 1

Filename C:\Ripped by Filex\01 - Lindita (Albania) - World.wav

Pre-gap length 0:00:02.00

Peak level 100.0 %
Extraction speed 2.6 X
Track quality 99.9 %
Test CRC CDAF3DA6
Copy CRC CDAF3DA6
Track not present in AccurateRip database
Copy OK

Track 2

Filename C:\Ripped by Filex\02 - Artsvik (Armenia) - Fly With Me.wav

Pre-gap length 0:00:00.31

Peak level 100.0 %
Extraction speed 2.8 X
Track quality 100.0 %
Test CRC 0C955B13
Copy CRC 0C955B13
Track not present in AccurateRip database
Copy OK

Track 3

Filename C:\Ripped by Filex\03 - Isaiah (Australia) - Don't Come Easy.wav

Pre-gap length 0:00:00.33

Peak level 100.0 %
Extraction speed 2.9 X
Track quality 100.0 %
Test CRC 28840FE1
Copy CRC 28840FE1
Track not present in AccurateRip database
Copy OK

Track 4

Filename C:\Ripped by Filex\04 - Nathan Trent (Austria) - Running on Air.wav

Pre-gap length 0:00:00.25

Peak level 100.0 %
Extraction speed 3.0 X
Track quality 100.0 %
Test CRC A27826EC
Copy CRC A27826EC
Track not present in AccurateRip database
Copy OK

Track 5

Filename C:\Ripped by Filex\05 - Dihaj (Azerbaijan) - Skeletons.wav

Pre-gap length 0:00:00.45

Peak level 99.9 %
Extraction speed 3.0 X
Track quality 100.0 %
Test CRC A5EAD44A
Copy CRC A5EAD44A
Track not present in AccurateRip database
Copy OK

Track 6

Filename C:\Ripped by Filex\06 - Blanche (Belgium) - City Lights.wav

Pre-gap length 0:00:00.35

Peak level 98.8 %
Extraction speed 3.0 X
Track quality 100.0 %
Test CRC D7B70F2E
Copy CRC D7B70F2E
Track not present in AccurateRip database
Copy OK

Track 7

Filename C:\Ripped by Filex\07 - Kristian Kostov (Bulgaria) - Beautiful Mess.wav

Pre-gap length 0:00:00.45

Peak level 100.0 %
Extraction speed 3.0 X
Track quality 100.0 %
Test CRC 72AD3883
Copy CRC 72AD3883
Track not present in AccurateRip database
Copy OK

Track 8

Filename C:\Ripped by Filex\08 - Naviband (Belarus) - Story of My Life.wav

Pre-gap length 0:00:00.62

Peak level 98.8 %
Extraction speed 2.7 X
Track quality 99.9 %
Test CRC D0E5281F
Copy CRC D0E5281F
Track not present in AccurateRip database
Copy OK

Track 9

Filename C:\Ripped by Filex\09 - Timebelle (Switzerland) - Apollo.wav

Pre-gap length 0:00:00.65

Peak level 92.2 %
Extraction speed 2.8 X
Track quality 100.0 %
Test CRC 3C80B0C6
Copy CRC 3C80B0C6
Track not present in AccurateRip database
Copy OK

Track 10

Filename C:\Ripped by Filex\10 - Hovig (Cyprus) - Gravity.wav

Pre-gap length 0:00:00.38

Peak level 97.4 %
Extraction speed 2.7 X
Track quality 100.0 %
Test CRC C8123C61
Copy CRC C8123C61
Track not present in AccurateRip database
Copy OK

Track 11

Filename C:\Ripped by Filex\11 - Martina Bárta (Czech Republic) - My Turn.wav

Pre-gap length 0:00:01.06

Peak level 99.9 %
Extraction speed 2.9 X
Track quality 100.0 %
Test CRC 6FAFB530
Copy CRC 6FAFB530
Track not present in AccurateRip database
Copy OK

Track 12

Filename C:\Ripped by Filex\12 - Levina (Germany) - Perfect Life.wav

Pre-gap length 0:00:00.39

Peak level 98.4 %
Extraction speed 3.0 X
Track quality 100.0 %
Test CRC 0F2EF224
Copy CRC 0F2EF224
Track not present in AccurateRip database
Copy OK

Track 13

Filename C:\Ripped by Filex\13 - Anja Nissen (Denmark) - Where I Am.wav

Pre-gap length 0:00:00.56

Peak level 100.0 %
Extraction speed 3.0 X
Track quality 100.0 %
Test CRC C8D10B87
Copy CRC C8D10B87
Track not present in AccurateRip database
Copy OK

Track 14

Filename C:\Ripped by Filex\14 - Manel Navarro (Spain) - Do it for Your Lover.wav

Pre-gap length 0:00:00.46

Peak level 100.0 %
Extraction speed 3.0 X
Track quality 100.0 %
Test CRC 669609B9
Copy CRC 669609B9
Track not present in AccurateRip database
Copy OK

Track 15

Filename C:\Ripped by Filex\15 - Koit Toome & Laura (Estonia) - Verona.wav

Pre-gap length 0:00:01.43

Peak level 99.9 %
Extraction speed 3.0 X
Track quality 100.0 %
Test CRC B3EB3AE1
Copy CRC B3EB3AE1
Track not present in AccurateRip database
Copy OK

Track 16

Filename C:\Ripped by Filex\16 - Norma John (Finland) - Blackbird.wav

Pre-gap length 0:00:01.21

Peak level 100.0 %
Extraction speed 2.9 X
Track quality 100.0 %
Test CRC B6C73C06
Copy CRC B6C73C06
Track not present in AccurateRip database
Copy OK

Track 17

Filename C:\Ripped by Filex\17 - Alma (France) - Requiem.wav

Pre-gap length 0:00:00.48

Peak level 100.0 %
Extraction speed 3.0 X
Track quality 100.0 %
Test CRC D48C3632
Copy CRC D48C3632
Track not present in AccurateRip database
Copy OK

Track 18

Filename C:\Ripped by Filex\18 - Lucie Jones (United Kingdom) - Never Give Up On You.wav

Pre-gap length 0:00:00.43

Peak level 99.8 %
Extraction speed 3.0 X
Track quality 100.0 %
Test CRC D9404534
Copy CRC D9404534
Track not present in AccurateRip database
Copy OK

Track 19

Filename C:\Ripped by Filex\19 - Tamara Gachechiladze (Georgia) - Keep the Faith.wav

Pre-gap length 0:00:00.60

Peak level 100.0 %
Extraction speed 2.9 X
Track quality 100.0 %
Test CRC D82E5103
Copy CRC D82E5103
Track not present in AccurateRip database
Copy OK

Track 20

Filename C:\Ripped by Filex\20 - Demy (Greece) - This Is Love.wav

Pre-gap length 0:00:00.54

Peak level 98.8 %
Extraction speed 2.8 X
Track quality 100.0 %
Test CRC 81D6AF52
Copy CRC 81D6AF52
Track not present in AccurateRip database
Copy OK

Track 21

Filename C:\Ripped by Filex\21 - Jacques Houdek (Croatia) - My Friend.wav

Pre-gap length 0:00:00.45

Peak level 98.8 %
Extraction speed 2.8 X
Track quality 100.0 %
Test CRC B07CF04D
Copy CRC B07CF04D
Track not present in AccurateRip database
Copy OK

Track 22

Filename C:\Ripped by Filex\22 - Joci Pápai (Hungary) - Origo.wav

Pre-gap length 0:00:01.25

Peak level 100.0 %
Extraction speed 2.7 X
Track quality 100.0 %
Test CRC 1F672E57
Copy CRC 1F672E57
Track not present in AccurateRip database
Copy OK

None of the tracks are present in the AccurateRip database

No errors occurred

End of status report

---- CUETools DB Plugin V2.1.6

[CTDB TOCID: y9xua4DeYk04Hd.ryej3cO4NbVo-] found
Submit result: y9xua4DeYk04Hd.ryej3cO4NbVo- has been confirmed
Track | CTDB Status
1 | (1/1) Accurately ripped
2 | (1/1) Accurately ripped
3 | (1/1) Accurately ripped
4 | (1/1) Accurately ripped
5 | (1/1) Accurately ripped
6 | (1/1) Accurately ripped
7 | (1/1) Accurately ripped
8 | (1/1) Accurately ripped
9 | (1/1) Accurately ripped
10 | (1/1) Accurately ripped
11 | (1/1) Accurately ripped
12 | (1/1) Accurately ripped
13 | (1/1) Accurately ripped
14 | (1/1) Accurately ripped
15 | (1/1) Accurately ripped
16 | (1/1) Accurately ripped
17 | (1/1) Accurately ripped
18 | (1/1) Accurately ripped
19 | (1/1) Accurately ripped
20 | (1/1) Accurately ripped
21 | (1/1) Accurately ripped
22 | (1/1) Accurately ripped

==== Log checksum 6063F1F67581652F8A9F7FBF183428FDDB3AD308D9AFE664A34CDEB3164517FC ====
EAC CD2
Exact Audio Copy V1.3 from 2. September 2016

EAC extraction logfile from 28. April 2017, 13:21

Various Artists / Eurovision Song Contest Kyiv 2017 (CD 2)

Used drive : PLEXTOR CD-R PX-230A Adapter: 1 ID: 0

Read mode : Secure
Utilize accurate stream : Yes
Defeat audio cache : Yes
Make use of C2 pointers : No

Read offset correction : 738
Overread into Lead-In and Lead-Out : No
Fill up missing offset samples with silence : Yes
Delete leading and trailing silent blocks : No
Null samples used in CRC calculations : Yes
Used interface : Native Win32 interface for Win NT & 2000
Gap handling : Appended to previous track

Used output format : User Defined Encoder
Selected bitrate : 1024 kBit/s
Quality : High
Add ID3 tag : No
Command line compressor : C:\Program Files\Exact Audio Copy\Flac\flac.exe
Additional command line options : -6 -V -T "ARTIST=%artist%" -T "TITLE=%title%" -T "ALBUM=%albumtitle%" -T "DATE=%year%" -T "TRACKNUMBER=%tracknr%" -T "GENRE=%genre%" -T "COMMENT=%comment%" -T "ALBUMARTIST=%albuminterpret%" -T "COMPOSER=%composer%" -T "DISCNUMBER=%cdnumber%" -T "TOTALDISCS=%totalcds%" -T "TOTALTRACKS=%numtracks%" %source% -o %dest%

TOC of the extracted CD

Track | Start | Length | Start sector | End sector
---------------------------------------------------------
1 | 0:00.00 | 3:00.30 | 0 | 13529
2 | 3:00.30 | 3:00.02 | 13530 | 27031
3 | 6:00.32 | 3:00.61 | 27032 | 40592
4 | 9:01.18 | 3:04.41 | 40593 | 54433
5 | 12:05.59 | 3:06.38 | 54434 | 68421
6 | 15:12.22 | 3:08.74 | 68422 | 82595
7 | 18:21.21 | 3:01.22 | 82596 | 96192
8 | 21:22.43 | 3:06.48 | 96193 | 110190
9 | 24:29.16 | 3:00.46 | 110191 | 123736
10 | 27:29.62 | 3:01.14 | 123737 | 137325
11 | 30:31.01 | 3:01.20 | 137326 | 150920
12 | 33:32.21 | 2:55.38 | 150921 | 164083
13 | 36:27.59 | 3:01.29 | 164084 | 177687
14 | 39:29.13 | 3:01.57 | 177688 | 191319
15 | 42:30.70 | 2:56.49 | 191320 | 204568
16 | 45:27.44 | 3:02.26 | 204569 | 218244
17 | 48:29.70 | 3:05.65 | 218245 | 232184
18 | 51:35.60 | 3:07.20 | 232185 | 246229
19 | 54:43.05 | 3:01.53 | 246230 | 259857
20 | 57:44.58 | 3:04.16 | 259858 | 273673
21 | 60:48.74 | 3:04.47 | 273674 | 287520

Track 1

Filename C:\Ripped by Filex\01 - Brendan Murray (Ireland) - Dying to Try.wav

Pre-gap length 0:00:02.00

Peak level 95.5 %
Extraction speed 2.3 X
Track quality 100.0 %
Test CRC 38EFD3CB
Copy CRC 38EFD3CB
Track not present in AccurateRip database
Copy OK

Track 2

Filename C:\Ripped by Filex\02 - Svala (Iceland) - Paper.wav

Pre-gap length 0:00:00.18

Peak level 96.3 %
Extraction speed 2.7 X
Track quality 100.0 %
Test CRC 31306D88
Copy CRC 31306D88
Track not present in AccurateRip database
Copy OK

Track 3

Filename C:\Ripped by Filex\03 - Imri (Israel) - I Feel Alive.wav

Pre-gap length 0:00:00.24

Peak level 98.1 %
Extraction speed 3.1 X
Track quality 100.0 %
Test CRC FCF8C986
Copy CRC FCF8C986
Track not present in AccurateRip database
Copy OK

Track 4

Filename C:\Ripped by Filex\04 - Francesco Gabbani (Italy) - Occidentali's Karma.wav

Pre-gap length 0:00:00.22

Peak level 99.0 %
Extraction speed 2.8 X
Track quality 100.0 %
Test CRC 65472FF1
Copy CRC 65472FF1
Track not present in AccurateRip database
Copy OK

Track 5

Filename C:\Ripped by Filex\05 - Fusedmarc (Lithuania) - Rain of Revolution.wav

Pre-gap length 0:00:01.28

Peak level 98.2 %
Extraction speed 2.4 X
Track quality 100.0 %
Test CRC 270B87C4
Copy CRC 270B87C4
Track not present in AccurateRip database
Copy OK

Track 6

Filename C:\Ripped by Filex\06 - Triana Park (Latvia) - Line.wav

Pre-gap length 0:00:01.12

Peak level 100.0 %
Extraction speed 2.7 X
Track quality 100.0 %
Test CRC F3CF62E7
Copy CRC F3CF62E7
Track not present in AccurateRip database
Copy OK

Track 7

Filename C:\Ripped by Filex\07 - Sunstroke Project (Moldova) - Hey Mamma.wav

Pre-gap length 0:00:00.18

Peak level 92.6 %
Extraction speed 2.6 X
Track quality 100.0 %
Test CRC 250887F8
Copy CRC 250887F8
Track not present in AccurateRip database
Copy OK

Track 8

Filename C:\Ripped by Filex\08 - Jana Burcheska (F.Y.R. Macedonia) - Dance Alone.wav

Pre-gap length 0:00:01.50

Peak level 99.9 %
Extraction speed 2.7 X
Track quality 100.0 %
Test CRC C64177FB
Copy CRC C64177FB
Track not present in AccurateRip database
Copy OK

Track 9

Filename C:\Ripped by Filex\09 - Claudia Faniello (Malta) - Breathlessly.wav

Pre-gap length 0:00:00.26

Peak level 98.9 %
Extraction speed 2.3 X
Track quality 99.9 %
Test CRC 719DA4B3
Copy CRC 719DA4B3
Track not present in AccurateRip database
Copy OK

Track 10

Filename C:\Ripped by Filex\10 - Slavko Kalezić (Montenegro) - Space.wav

Pre-gap length 0:00:00.42

Peak level 98.9 %
Extraction speed 2.7 X
Track quality 100.0 %
Test CRC B64EFE3A
Copy CRC B64EFE3A
Track not present in AccurateRip database
Copy OK

Track 11

Filename C:\Ripped by Filex\11 - OG3NE (The Netherlands) - Lights and Shadows.wav

Pre-gap length 0:00:01.54

Peak level 98.9 %
Extraction speed 2.7 X
Track quality 99.9 %
Test CRC 1EFE08F8
Copy CRC 1EFE08F8
Track not present in AccurateRip database
Copy OK

Track 12

Filename C:\Ripped by Filex\12 - JOWST (Norway) - Grab the Moment.wav

Pre-gap length 0:00:01.12

Peak level 97.7 %
Extraction speed 3.0 X
Track quality 100.0 %
Test CRC 5922F6A5
Copy CRC 5922F6A5
Track not present in AccurateRip database
Copy OK

Track 13

Filename C:\Ripped by Filex\13 - Kasia Mos (Poland) - Flashlight.wav

Pre-gap length 0:00:00.33

Peak level 99.4 %
Extraction speed 3.1 X
Track quality 100.0 %
Test CRC 74387E3A
Copy CRC 74387E3A
Track not present in AccurateRip database
Copy OK

Track 14

Filename C:\Ripped by Filex\14 - Salvador Sobral (Portugal) - Amar Pelos Dois.wav

Pre-gap length 0:00:00.63

Peak level 100.0 %
Extraction speed 3.0 X
Track quality 100.0 %
Test CRC 7C4F08C7
Copy CRC 7C4F08C7
Track not present in AccurateRip database
Copy OK

Track 15

Filename C:\Ripped by Filex\15 - Ilinca feat. Alex Florea (Romania) - Yodel it!.wav

Pre-gap length 0:00:01.57

Peak level 100.0 %
Extraction speed 3.0 X
Track quality 100.0 %
Test CRC 0D4FAF38
Copy CRC 0D4FAF38
Track not present in AccurateRip database
Copy OK

Track 16

Filename C:\Ripped by Filex\16 - Julia Samoylova (Russia) - Flame Is Burning.wav

Pre-gap length 0:00:00.29

Peak level 100.0 %
Extraction speed 2.9 X
Track quality 100.0 %
Test CRC EA45ABBA
Copy CRC EA45ABBA
Track not present in AccurateRip database
Copy OK

Track 17

Filename C:\Ripped by Filex\17 - Valentina Monetta & Jimmie Wilson (San Marino) - Spirit of the Night.wav

Pre-gap length 0:00:00.45

Peak level 100.0 %
Extraction speed 2.5 X
Track quality 100.0 %
Test CRC 21C9F78D
Copy CRC 21C9F78D
Track not present in AccurateRip database
Copy OK

Track 18

Filename C:\Ripped by Filex\18 - Tijana Bogićević (Serbia) - In Too Deep.wav

Pre-gap length 0:00:00.42

Peak level 100.0 %
Extraction speed 2.5 X
Track quality 100.0 %
Test CRC 75AEDF09
Copy CRC 75AEDF09
Track not present in AccurateRip database
Copy OK

Track 19

Filename C:\Ripped by Filex\19 - Omar Naber (Slovenia) - On My Way.wav

Pre-gap length 0:00:00.15

Peak level 100.0 %
Extraction speed 2.6 X
Track quality 100.0 %
Test CRC 02E09BA5
Copy CRC 02E09BA5
Track not present in AccurateRip database
Copy OK

Track 20

Filename C:\Ripped by Filex\20 - Robin Bengtsson (Sweden) - I Can't Go On.wav

Pre-gap length 0:00:01.04

Peak level 98.5 %
Extraction speed 2.6 X
Track quality 100.0 %
Test CRC 5A6574DF
Copy CRC 5A6574DF
Track not present in AccurateRip database
Copy OK

Track 21

Filename C:\Ripped by Filex\21 - O.Torvald (Ukraine) - Time.wav

Pre-gap length 0:00:00.36

Peak level 100.0 %
Extraction speed 2.4 X
Track quality 99.9 %
Test CRC 95CC8929
Copy CRC 95CC8929
Track not present in AccurateRip database
Copy OK

None of the tracks are present in the AccurateRip database

No errors occurred

End of status report

---- CUETools DB Plugin V2.1.6

[CTDB TOCID: KuLE0cNTq8MqTrsZf8faHImk1qk-] found
Submit result: KuLE0cNTq8MqTrsZf8faHImk1qk- has been confirmed
Track | CTDB Status
1 | (1/1) Accurately ripped
2 | (1/1) Accurately ripped
3 | (1/1) Accurately ripped
4 | (1/1) Accurately ripped
5 | (1/1) Accurately ripped
6 | (1/1) Accurately ripped
7 | (1/1) Accurately ripped
8 | (1/1) Accurately ripped
9 | (1/1) Accurately ripped
10 | (1/1) Accurately ripped
11 | (1/1) Accurately ripped
12 | (1/1) Accurately ripped
13 | (1/1) Accurately ripped
14 | (1/1) Accurately ripped
15 | (1/1) Accurately ripped
16 | (1/1) Accurately ripped
17 | (1/1) Accurately ripped
18 | (1/1) Accurately ripped
19 | (1/1) Accurately ripped
20 | (1/1) Accurately ripped
21 | (1/1) Accurately ripped

==== Log checksum 6811BFF2A784668084162513E25C6C12DA9AB88B52AD53135F61B9CDE5509C28 ====
LOG (.CUE):CD1
REM GENRE Pop
REM DATE 2017
REM DISCID 500F8016
REM COMMENT "ExactAudioCopy v1.3"
PERFORMER "Various Artists"
TITLE "Eurovision Song Contest Kyiv 2017 (CD 1)"
FILE "01 - Lindita - World.wav" WAVE
TRACK 01 AUDIO
TITLE "World"
PERFORMER "Lindita (Albania)"
INDEX 01 00:00:00
TRACK 02 AUDIO
TITLE "Fly With Me"
PERFORMER "Artsvik (Armenia)"
INDEX 00 02:56:17
FILE "02 - Artsvik - Fly With Me.wav" WAVE
INDEX 01 00:00:00
TRACK 03 AUDIO
TITLE "Don't Come Easy"
PERFORMER "Isaiah (Australia)"
INDEX 00 02:59:10
FILE "03 - Isaiah - Don't Come Easy.wav" WAVE
INDEX 01 00:00:00
TRACK 04 AUDIO
TITLE "Running on Air"
PERFORMER "Nathan Trent (Austria)"
INDEX 00 03:04:36
FILE "04 - Nathan Trent - Running on Air.wav" WAVE
INDEX 01 00:00:00
TRACK 05 AUDIO
TITLE "Skeletons"
PERFORMER "Dihaj (Azerbaijan)"
INDEX 00 02:47:16
FILE "05 - Dihaj - Skeletons.wav" WAVE
INDEX 01 00:00:00
TRACK 06 AUDIO
TITLE "City Lights"
PERFORMER "Blanche (Belgium)"
INDEX 00 02:59:01
FILE "06 - Blanche - City Lights.wav" WAVE
INDEX 01 00:00:00
TRACK 07 AUDIO
TITLE "Beautiful Mess"
PERFORMER "Kristian Kostov (Bulgaria)"
INDEX 00 02:54:43
FILE "07 - Kristian Kostov - Beautiful Mess.wav" WAVE
INDEX 01 00:00:00
TRACK 08 AUDIO
TITLE "Story of My Life"
PERFORMER "Naviband (Belarus)"
INDEX 00 03:00:72
FILE "08 - Naviband - Story of My Life.wav" WAVE
INDEX 01 00:00:00
TRACK 09 AUDIO
TITLE "Apollo"
PERFORMER "Timebelle (Switzerland)"
INDEX 00 03:00:03
FILE "09 - Timebelle - Apollo.wav" WAVE
INDEX 01 00:00:00
TRACK 10 AUDIO
TITLE "Gravity"
PERFORMER "Hovig (Cyprus)"
INDEX 00 02:59:23
FILE "10 - Hovig - Gravity.wav" WAVE
INDEX 01 00:00:00
TRACK 11 AUDIO
TITLE "My Turn"
PERFORMER "Martina Bбrta (Czech Republic)"
INDEX 00 02:59:72
FILE "11 - Martina Barta - My Turn.wav" WAVE
INDEX 01 00:00:00
TRACK 12 AUDIO
TITLE "Perfect Life"
PERFORMER "Levina (Germany)"
INDEX 00 02:58:59
FILE "12 - Levina - Perfect Life.wav" WAVE
INDEX 01 00:00:00
TRACK 13 AUDIO
TITLE "Where I Am"
PERFORMER "Anja Nissen (Denmark)"
INDEX 00 03:00:21
FILE "13 - Anja Nissen - Where I Am.wav" WAVE
INDEX 01 00:00:00
TRACK 14 AUDIO
TITLE "Do it for Your Lover"
PERFORMER "Manel Navarro (Spain)"
INDEX 00 02:59:57
FILE "14 - Manel Navarro - Do it for Your Lover.wav" WAVE
INDEX 01 00:00:00
TRACK 15 AUDIO
TITLE "Verona"
PERFORMER "Koit Toome & Laura (Estonia)"
INDEX 00 03:00:29
FILE "15 - Koit Toome & Laura - Verona.wav" WAVE
INDEX 01 00:00:00
TRACK 16 AUDIO
TITLE "Blackbird"
PERFORMER "Norma John (Finland)"
INDEX 00 03:02:33
FILE "16 - Norma John - Blackbird.wav" WAVE
INDEX 01 00:00:00
TRACK 17 AUDIO
TITLE "Requiem"
PERFORMER "Alma (France)"
INDEX 00 03:06:38
FILE "17 - Alma - Requiem.wav" WAVE
INDEX 01 00:00:00
TRACK 18 AUDIO
TITLE "Never Give Up On You"
PERFORMER "Lucie Jones (United Kingdom)"
INDEX 00 03:00:12
FILE "18 - Lucie Jones - Never Give Up On You.wav" WAVE
INDEX 01 00:00:00
TRACK 19 AUDIO
TITLE "Keep the Faith"
PERFORMER "Tamara Gachechiladze (Georgia)"
INDEX 00 03:00:51
FILE "19 - Tamara Gachechiladze - Keep the Faith.wav" WAVE
INDEX 01 00:00:00
TRACK 20 AUDIO
TITLE "This Is Love"
PERFORMER "Demy (Greece)"
INDEX 00 02:58:33
FILE "20 - Demy - This Is Love.wav" WAVE
INDEX 01 00:00:00
TRACK 21 AUDIO
TITLE "My Friend"
PERFORMER "Jacques Houdek (Croatia)"
INDEX 00 03:01:30
FILE "21 - Jacques Houdek - My Friend.wav" WAVE
INDEX 01 00:00:00
TRACK 22 AUDIO
TITLE "Origo"
PERFORMER "Joci Pбpai (Hungary)"
INDEX 00 03:00:06
FILE "22 - Joci Papai - Origo.wav" WAVE
INDEX 01 00:00:00
LOG (.CUE):CD2
REM GENRE Pop
REM DATE 2017
REM DISCID 1D0EF915
REM COMMENT "ExactAudioCopy v1.3"
PERFORMER "Various Artists"
TITLE "Eurovision Song Contest Kyiv 2017 (CD 2)"
FILE "01 - Brendan Murray - Dying to Try.wav" WAVE
TRACK 01 AUDIO
TITLE "Dying to Try"
PERFORMER "Brendan Murray (Ireland)"
INDEX 01 00:00:00
TRACK 02 AUDIO
TITLE "Paper"
PERFORMER "Svala (Iceland)"
INDEX 00 03:00:12
FILE "02 - Svala - Paper.wav" WAVE
INDEX 01 00:00:00
TRACK 03 AUDIO
TITLE "I Feel Alive"
PERFORMER "Imri (Israel)"
INDEX 00 02:59:53
FILE "03 - Imri - I Feel Alive.wav" WAVE
INDEX 01 00:00:00
TRACK 04 AUDIO
TITLE "Occidentali's Karma"
PERFORMER "Francesco Gabbani (Italy)"
INDEX 00 03:00:39
FILE "04 - Francesco Gabbani - Occidentali's Karma.wav" WAVE
INDEX 01 00:00:00
TRACK 05 AUDIO
TITLE "Rain of Revolution"
PERFORMER "Fusedmarc (Lithuania)"
INDEX 00 03:03:13
FILE "05 - Fusedmarc - Rain of Revolution.wav" WAVE
INDEX 01 00:00:00
TRACK 06 AUDIO
TITLE "Line"
PERFORMER "Triana Park (Latvia)"
INDEX 00 03:05:26
FILE "06 - Triana Park - Line.wav" WAVE
INDEX 01 00:00:00
TRACK 07 AUDIO
TITLE "Hey Mamma"
PERFORMER "Sunstroke Project (Moldova)"
INDEX 00 03:08:56
FILE "07 - Sunstroke Project - Hey Mamma.wav" WAVE
INDEX 01 00:00:00
TRACK 08 AUDIO
TITLE "Dance Alone"
PERFORMER "Jana Burcheska (F.Y.R. Macedonia)"
INDEX 00 02:59:47
FILE "08 - Jana Burcheska - Dance Alone.wav" WAVE
INDEX 01 00:00:00
TRACK 09 AUDIO
TITLE "Breathlessly"
PERFORMER "Claudia Faniello (Malta)"
INDEX 00 03:06:22
FILE "09 - Claudia Faniello - Breathlessly.wav" WAVE
INDEX 01 00:00:00
TRACK 10 AUDIO
TITLE "Space"
PERFORMER "Slavko Kalezic (Montenegro)"
INDEX 00 03:00:04
FILE "10 - Slavko Kalezic - Space.wav" WAVE
INDEX 01 00:00:00
TRACK 11 AUDIO
TITLE "Lights and Shadows"
PERFORMER "OG3NE (The Netherlands)"
INDEX 00 02:59:35
FILE "11 - OG3NE - Lights and Shadows.wav" WAVE
INDEX 01 00:00:00
TRACK 12 AUDIO
TITLE "Grab the Moment"
PERFORMER "JOWST (Norway)"
INDEX 00 03:00:08
FILE "12 - JOWST - Grab the Moment.wav" WAVE
INDEX 01 00:00:00
TRACK 13 AUDIO
TITLE "Flashlight"
PERFORMER "Kasia Mos (Poland)"
INDEX 00 02:55:05
FILE "13 - Kasia Mos - Flashlight.wav" WAVE
INDEX 01 00:00:00
TRACK 14 AUDIO
TITLE "Amar Pelos Dois"
PERFORMER "Salvador Sobral (Portugal)"
INDEX 00 03:00:41
FILE "14 - Salvador Sobral - Amar Pelos Dois.wav" WAVE
INDEX 01 00:00:00
TRACK 15 AUDIO
TITLE "Yodel it!"
PERFORMER "Ilinca feat. Alex Florea (Romania)"
INDEX 00 03:00:00
FILE "15 - Ilinca feat. Alex Florea - Yodel it!.wav" WAVE
INDEX 01 00:00:00
TRACK 16 AUDIO
TITLE "Flame Is Burning"
PERFORMER "Julia Samoylova (Russia)"
INDEX 00 02:56:20
FILE "16 - Julia Samoylova - Flame Is Burning.wav" WAVE
INDEX 01 00:00:00
TRACK 17 AUDIO
TITLE "Spirit of the Night"
PERFORMER "Valentina Monetta & Jimmie Wilson (San Marino)"
INDEX 00 03:01:56
FILE "17 - Valentina Monetta & Jimmie Wilson - Spirit of the Night.wav" WAVE
INDEX 01 00:00:00
TRACK 18 AUDIO
TITLE "In Too Deep"
PERFORMER "Tijana Bogicevic (Serbia)"
INDEX 00 03:05:23
FILE "18 - Tijana Bogicevic - In Too Deep.wav" WAVE
INDEX 01 00:00:00
TRACK 19 AUDIO
TITLE "On My Way"
PERFORMER "Omar Naber (Slovenia)"
INDEX 00 03:07:05
FILE "19 - Omar Naber - On My Way.wav" WAVE
INDEX 01 00:00:00
TRACK 20 AUDIO
TITLE "I Can't Go On"
PERFORMER "Robin Bengtsson (Sweden)"
INDEX 00 03:00:49
FILE "20 - Robin Bengtsson - I Can't Go On.wav" WAVE
INDEX 01 00:00:00
TRACK 21 AUDIO
TITLE "Time"
PERFORMER "O.Torvald (Ukraine)"
INDEX 00 03:03:55
FILE "21 - O.Torvald - Time.wav" WAVE
INDEX 01 00:00:00


Якщо Ви справді бажаєте підтримати українське - після прослуховування, якщо музика вам сподобалась, придбайте ліцензійний диск. Підтримаймо вітчизняних виконавців!


Срібний реліз (на рейтинг впливає 50% завантаженого)
 Трекер:    Зареєстрований   

Завантажити / скачати українську музику



відео для новачків



 Зареєстрований:   2017-05-04 13:50
 Розмір:   968 MB 
 Оцінка музики:   8.2/10 (Голосів: 5)
   
ssTAss 
Модератор музики


З нами з: 05.07.08
Востаннє: 26.09.17
Повідомлень: 12013

2017-05-31 14:41  

Gin_ger 
Свій


З нами з: 26.03.11
Востаннє: 25.06.17
Повідомлень: 62

2017-06-01 00:52  

Ваш часовий пояс: GMT + 2 Години

Нова тема   Відповісти