Привид в латах 2. Невинність / Ghost in the Shell 2: Innocence (2004) 1080р Ukr/Jap

Нові коментарі

Нова тема   Відповісти
Автор Повідомлення
FBRUA 
Модератор розділу аніме


З нами з: 09.07.13
Востаннє: 16.08.17
Повідомлень: 2041

2017-05-03 13:10  
Привид в латах 2. Невинність / Ghost in the Shell 2: Innocence (2004) 1080р Ukr/Jap


Жанр: драма, фантастика, кіберпанк
Країна: Японія



Кіностудія / кінокомпанія: Production I.G
Режисер: Мамору Ошіі
Автор оригіналу: Шіро Масамуне
Ролі озвучують: Дан Томоюкі, Танака Ацуко, Сака Осаму, Оцука Акіо та ін.

Опис:
У 2032 році Бато, детектив-кіборг з Дев’ятого відділу антитерористичного Бюро громадської безпеки, розслідує справу про жінку-робота, створену виключно для сексуального задоволення, яка вбила свого господаря.

Тривалість: 01:39:06
Якість: 1080p
Контейнер: .
Відео:
кодек:
розмір кадру: 1920 х 1036
бітрейт: ~14700 кб/с

Аудіо # 1:
мова: українська
переклад: двоголосий закадровий
кодек: FLAC 5.1
бітрейт: 1459 кб/с

Аудіо # 2:
мова: японська
переклад: оригінал
кодек: FLAC 6.1
бітрейт: 1631 кб/с
Звіт Info

General
Unique ID : 219171052949097378750646431100366157610 (0xA4E2CF33A4866EB2B0FAABED554EF72A)
Complete name : R:\Ghost in the Shell 2 Innocence\Ghost_in_the_Shell_2_Innocence_(BDRip_x264_1080_FLAC).
Format :
Format version : Version 4 / Version 2
File size : 12.3 GiB
Duration : 1 h 39 min
Overall bit rate mode : Variable
Overall bit rate : 17.8 Mb/s
Encoded date : UTC 2017-05-11 18:46:25
Writing application : mkvmerge v7.0.0 ('Where We Going') 32bit built on Jun 9 2014 15:08:34
Writing library : libebml v1.3.0 + libmatroska v1.4.1
Cover : Yes
Attachments : cover.jpg

Video
ID : 1
Format : AVC
Format/Info : Advanced Video Codec
Format profile : High [email protected]
Format settings, CABAC : Yes
Format settings, ReFrames : 16 frames
Codec ID : V_MPEG4/ISO/AVC
Duration : 1 h 39 min
Bit rate : 14.7 Mb/s
Width : 1 920 pixels
Height : 1 036 pixels
Display aspect ratio : 1.85:1
Frame rate mode : Constant
Frame rate : 23.976 (24000/1001) FPS
Color space : YUV
Chroma subsampling : 4:2:0
Bit depth : 10 bits
Scan type : Progressive
Bits/(Pixel*Frame) : 0.307
Stream size : 10.1 GiB (83%)
Title : Ghost in the Shell 2: Innocence
Writing library : core 130 r2273 b3065e6
Encoding settings : cabac=1 / ref=16 / deblock=1:0:0 / analyse=0x3:0x133 / me=umh / subme=11 / psy=1 / psy_rd=1.00:0.50 / mixed_ref=1 / me_range=16 / chroma_me=1 / trellis=2 / 8x8dct=1 / cqm=0 / deadzone=21,11 / fast_pskip=0 / chroma_qp_offset=-4 / threads=18 / lookahead_threads=2 / sliced_threads=0 / nr=0 / decimate=0 / interlaced=0 / bluray_compat=0 / constrained_intra=0 / bframes=6 / b_pyramid=2 / b_adapt=2 / b_bias=0 / direct=3 / weightb=1 / open_gop=0 / weightp=2 / keyint=250 / keyint_min=23 / scenecut=40 / intra_refresh=0 / rc=crf / mbtree=0 / crf=19.0 / qcomp=0.60 / qpmin=0 / qpmax=81 / qpstep=4 / ip_ratio=1.40 / pb_ratio=1.30 / aq=1:1.00
Language : Japanese
Default : Yes
Forced : Yes

Audio #1
ID : 2
Format : FLAC
Format/Info : Free Lossless Audio Codec
Codec ID : A_FLAC
Duration : 1 h 39 min
Bit rate mode : Variable
Bit rate : 1 459 kb/s
Channel(s) : 6 channels
Channel positions : Front: L C R, Side: L R, LFE
Sampling rate : 48.0 kHz
Frame rate : 11.719 FPS (4096 spf)
Bit depth : 16 bits
Stream size : 1.01 GiB (8%)
Title : двоголосий закадровий від Gwean & Maslinka
Writing library : libFLAC 1.2.1 (UTC 2007-09-17)
Language : Ukrainian
Default : Yes
Forced : Yes

Audio #2
ID : 3
Format : FLAC
Format/Info : Free Lossless Audio Codec
Codec ID : A_FLAC
Duration : 1 h 39 min
Bit rate mode : Variable
Bit rate : 1 631 kb/s
Channel(s) : 7 channels
Channel positions : Front: L C R, Side: L R, Back: C, LFE
Sampling rate : 48.0 kHz
Frame rate : 11.719 FPS (4096 spf)
Bit depth : 16 bits
Stream size : 1.13 GiB (9%)
Title : оригінальна доріжка
Writing library : libFLAC 1.2.1 (UTC 2007-09-17)
Language : Japanese
Default : No
Forced : No
Скріншоти






--->>>РЕЛІЗ [480p]<<<--- | --->>>РЕЛІЗ [720p]<<<---

Реліз від:

Переклад: Семченко Д. В.
Ролі озвучили: Gwean & Maslinka
Робота зі звуком: Gwean
Контроль якості: MadGuy
Постер: Лунсар



Авторський реліз (завантажувати можна без реєстрації)
 Трекер:    Зареєстрований   

Завантажити / скачати аніме українською



відео для новачків



 Зареєстрований:   2017-05-11 23:13
 Розмір:   12.29 GB 
 Оцінка аніме:   9.7/10 (Голосів: 6)
   
Косячок справжній 
VIP


З нами з: 29.02.12
Востаннє: 17.08.17
Повідомлень: 1008

2017-05-10 22:14  
Гарне аніме.
EvGaS 
Відео Гуртом - підтримка та поширення
Відео Гуртом - підтримка та поширення


З нами з: 27.02.12
Востаннє: 17.08.17
Повідомлень: 3331

2017-05-11 06:33  
Косячок справжній, а в мене було деяке відторгнення через «ефект ляльки» (коли персонажі стають надто схожими на людей, та сприймаються як манекени).

Але в плюс можна записати те, що це мабуть найбільш складна й заплутана екранізація серед усіх. Принаймні, так здалося коли колись дививсь.

bot 
робот


З нами з: 30.09.07
Востаннє: 26.05.05
Повідомлень: 17362

2017-05-11 23:13  
Тему перенесено з Анонси релізів до форуму Аніме


FBRUA

EvGaS 
Відео Гуртом - підтримка та поширення
Відео Гуртом - підтримка та поширення


З нами з: 27.02.12
Востаннє: 17.08.17
Повідомлень: 3331

2017-06-09 23:02  

Virake 
Localize Team
Localize Team


З нами з: 07.07.09
Востаннє: 15.08.17
Повідомлень: 4452

2017-07-01 21:14  
питання-спойлер:
хто випустив роботів на кораблі?

Косячок справжній 
VIP


З нами з: 29.02.12
Востаннє: 17.08.17
Повідомлень: 1008

2017-07-02 14:47  
Virake
Може самі ляльки, коли зрозуміли, що Бато і Тоґуса прийшли на судно прикрити їх виробництво, тим паче, в них була змінена програма дещо, та й недаремно Мотоко говорила про дзеркало, що не бачить зло, а створює його.
Звісно це може бути черговий супер-розумака хаРкер, ім'я якого лишилося у тіні.

Virake 
Localize Team
Localize Team


З нами з: 07.07.09
Востаннє: 15.08.17
Повідомлень: 4452

2017-07-02 16:25  
Косячок справжній
спойлер:
але яким чином ці роботи отримали доступ до такої функції? вбивство власників - це залежить від них, але контролю над їхнім випуском із капсул у них не мало бути. моя найвірогідніша версія - це спричинив вірус, якого було завантажено в систему корабля через хакера, який мав зв'язок із начальником охорони.

Косячок справжній 
VIP


З нами з: 29.02.12
Востаннє: 17.08.17
Повідомлень: 1008

2017-07-02 17:34  
Virake
Може ті ляльки, що на волі були/лишилися якось це утнули.
Якщо незрозуміло хто робить злочини в усіх Ghost in a shell, то можна сказати хаРкер і це буде в сливку), такі вони вже передбачувані в цьому плані, чомусь.

Ваш часовий пояс: GMT + 2 Години

Нова тема   Відповісти