Оселя зла: Фінальна битва / Resident Evil: The Final Chapter (2016) 720p Ukr/Eng | Sub Ukr/Eng

Нові коментарі

Нова тема   Відповісти
Автор Повідомлення
Drool 
VIP


З нами з: 17.04.10
Востаннє: 12.12.17
Повідомлень: 1411

2017-05-03 11:33  
Оселя зла: Фінальна битва / Resident Evil: The Final Chapter (2016) 720p Ukr/Eng | Sub Ukr/Eng

Жанр: трилер, фантастика, жахи, бойовик
Країна: Німеччина, Австралія, Канада, Франція


Підлітки до 16 років допускаються до фільму тільки у супроводі одного з батьків, або законного представника
Обмеження - до 16 років потрібний супровід батька або дорослого опікуна (вік може змінюватися в деяких регіонах). Цей рейтинг показує, що оціночна комісія вирішила, що деякий матеріал цього фільму призначається для дорослих. Батьки повинні більше дізнатися про фільм перш, ніж узяти на його перегляд дітей. Рейтинг R також може бути призначений унаслідок використовуваної у фільмі мови, теми, насильства, сексу або зображення вживання наркотиків.
Кінокомпанія: Capcom Entertainment, Impact Pictures, Screen Gems
Режисер: Пол У. С. Андерсон
Актори: Мілла Йовович, Рубі Роуз, Елі Лартер, Ієн Глен, Вільям Леві, Шон Робертс, Рола, Оуен Мекен та інші

Сюжет:
Еліс продовжує свою боротьбу з ворожою системою корпорації з допомогою своїх друзів: Джилл Валентайн, Ада Вонг, Леон Скотт Кеннеді і Беккі, продовжуючи непростий союз з колишнім головою — Альбертом Вескером. По дорозі вони возз'єднаються з колишніми захопленими товаришами: Крісом, Клер і Кей-Март. Їх епічна битва приведе їх туди, де все й почалося, в темний особняк, побудований засновником Оузвелом Спенсером.


Тривалість: 01:46:40
Якість: 720p
Відео:
кодек:
розмір кадру: 1280x534
бітрейт: 3999 кб/с

Аудіо # 1:
мова: українська
переклад: професійний дубльований
кодек: 2.0
бітрейт: 192 кб/с

Аудіо # 2:
мова: англійська
переклад: оригінал
кодек: 5.1
бітрейт: 448 кб/с

Субтитри 1, 2:
мова: українська
тип: програмні (м'які) (форсовані + повні)
формат: *.srt

Субтитри 3:
мова: англійська
тип: програмні (м'які)
формат: *.srt
Info
Код:
General
Unique ID                                : 311915743041662493630639774019530023176 (0xEAA8C9768957293E6FC5CF8DAAD46108)
Complete name                            : /mnt/disk_d/Video/Resident.Evil.The.Final.Chapter.2016.Ukr.Dub-2.0..720p.
Format                                   :
Format version                           : Version 4 / Version 2
File size                                : 3.46 GiB
Duration                                 : 1h 46mn
Overall bit rate                         : 4 641 Kbps
Movie name                               : Оселя зла: Фінальна битва / Resident Evil: The Final Chapter (2016) 720p | by ExKinoRay
Encoded date                             : UTC 2017-05-03 11:26:16
Writing application                      : mkvmerge v9.7.1 ('Pandemonium') 64bit
Writing library                          : libebml v1.3.4 + libmatroska v1.4.5
Attachements                             : cover.jpg
DURATION                                 : 01:45:29.227000000
NUMBER_OF_FRAMES                         : 819
NUMBER_OF_BYTES                          : 25018
_STATISTICS_WRITING_APP                  : mkvmerge v9.7.1 ('Pandemonium') 64bit
_STATISTICS_WRITING_DATE_UTC             : 2017-05-03 11:26:16
_STATISTICS_TAGS                         : BPS DURATION NUMBER_OF_FRAMES NUMBER_OF_BYTES

Video
ID                                       : 1
Format                                   : AVC
Format/Info                              : Advanced Video Codec
Format profile                           : [email protected]
Format settings, CABAC                   : Yes
Format settings, ReFrames                : 12 frames
Codec ID                                 : V_MPEG4/ISO/AVC
Duration                                 : 1h 46mn
Bit rate                                 : 3 999 Kbps
Width                                    : 1 280 pixels
Height                                   : 534 pixels
Display aspect ratio                     : 2.40:1
Frame rate mode                          : Constant
Frame rate                               : 23.976 fps
Color space                              : YUV
Chroma subsampling                       : 4:2:0
Bit depth                                : 8 bits
Scan type                                : Progressive
Bits/(Pixel*Frame)                       : 0.244
Stream size                              : 2.91 GiB (84%)
Title                                    : Оселя зла: Фінальна битва / Resident Evil: The Final Chapter (2016) 720p | by ExKinoRay
Writing library                          : core 146 r2538 121396c
Encoding settings                        : cabac=1 / ref=12 / deblock=1:-3:-3 / analyse=0x3:0x133 / me=umh / subme=11 / psy=1 / psy_rd=1.05:0.05 / mixed_ref=1 / me_range=32 / chroma_me=1 / trellis=2 / 8x8dct=1 / cqm=0 / deadzone=21,11 / fast_pskip=0 / chroma_qp_offset=-3 / threads=6 / lookahead_threads=1 / sliced_threads=0 / nr=0 / decimate=0 / interlaced=0 / bluray_compat=0 / constrained_intra=0 / bframes=8 / b_pyramid=2 / b_adapt=2 / b_bias=0 / direct=3 / weightb=1 / open_gop=0 / weightp=2 / keyint=240 / keyint_min=23 / scenecut=40 / intra_refresh=0 / rc_lookahead=50 / rc=2pass / mbtree=0 / bitrate=3999 / ratetol=1.0 / qcomp=0.60 / qpmin=0 / qpmax=69 / qpstep=4 / cplxblur=20.0 / qblur=0.5 / vbv_maxrate=50000 / vbv_bufsize=62500 / nal_hrd=none / filler=0 / ip_ratio=1.40 / pb_ratio=1.30 / aq=1:0.80
Default                                  : Yes
Forced                                   : Yes
DURATION                                 : 01:46:40.394000000
NUMBER_OF_FRAMES                         : 153456
NUMBER_OF_BYTES                          : 3198639502
_STATISTICS_WRITING_APP                  : mkvmerge v9.7.1 ('Pandemonium') 64bit
_STATISTICS_WRITING_DATE_UTC             : 2017-05-03 11:26:16
_STATISTICS_TAGS                         : BPS DURATION NUMBER_OF_FRAMES NUMBER_OF_BYTES

Audio #1
ID                                       : 2
Format                                   : AC-3
Format/Info                              : Audio Coding 3
Mode extension                           : CM (complete main)
Format settings, Endianness              : Big
Codec ID                                 : A_AC3
Duration                                 : 1h 46mn
Bit rate mode                            : Constant
Bit rate                                 : 192 Kbps
Channel(s)                               : 2 channels
Channel positions                        : Front: L R
Sampling rate                            : 48.0 KHz
Compression mode                         : Lossy
Stream size                              : 146 MiB (4%)
Title                                    : 2.0 @ 192 kbps | iTunes
Language                                 : Ukrainian
Default                                  : Yes
Forced                                   : Yes

Audio #2
ID                                       : 3
Format                                   : AC-3
Format/Info                              : Audio Coding 3
Mode extension                           : CM (complete main)
Format settings, Endianness              : Big
Codec ID                                 : A_AC3
Duration                                 : 1h 46mn
Bit rate mode                            : Constant
Bit rate                                 : 448 Kbps
Channel(s)                               : 6 channels
Channel positions                        : Front: L C R, Side: L R, LFE
Sampling rate                            : 48.0 KHz
Compression mode                         : Lossy
Stream size                              : 342 MiB (10%)
Title                                    : 5.1 @ 448 kbps
Language                                 : English
Default                                  : No
Forced                                   : No

Text #1
ID                                       : 4
Format                                   : UTF-8
Codec ID                                 : S_TEXT/UTF8
Codec ID/Info                            : UTF-8 Plain Text
Title                                    : Forced
Language                                 : Ukrainian
Default                                  : Yes
Forced                                   : Yes

Text #2
ID                                       : 5
Format                                   : UTF-8
Codec ID                                 : S_TEXT/UTF8
Codec ID/Info                            : UTF-8 Plain Text
Title                                    : Full
Language                                 : Ukrainian
Default                                  : No
Forced                                   : No

Text #3
ID                                       : 6
Format                                   : UTF-8
Codec ID                                 : S_TEXT/UTF8
Codec ID/Info                            : UTF-8 Plain Text
Language                                 : English
Default                                  : No
Forced                                   : No

Menu
00:00:00.000                             : en:Chapter 01
00:05:39.339                             : en:Chapter 02
00:11:18.177                             : en:Chapter 03
00:17:00.102                             : en:Chapter 04
00:22:36.146                             : en:Chapter 05
00:27:21.640                             : en:Chapter 06
00:33:38.474                             : en:Chapter 07
00:40:47.820                             : en:Chapter 08
00:46:36.126                             : en:Chapter 09
00:53:18.778                             : en:Chapter 10
01:03:18.669                             : en:Chapter 11
01:10:47.826                             : en:Chapter 12
01:15:37.574                             : en:Chapter 13
01:22:57.806                             : en:Chapter 14
01:28:32.765                             : en:Chapter 15
01:35:07.159                             : en:Chapter 16
Скріншоти




Джерело відеоряду:
Особиста оцінка: 6 - третій сорт - не брак


 Трекер:    Зареєстрований   

Завантажити / скачати фільм українською



відео для новачків



 Зареєстрований:   2017-05-03 13:35
 Розмір:   3.46 GB 
 Оцінка фільму:   7.4/10 (Голосів: 17)
   
Lil`Antoni 
VIP


З нами з: 25.02.12
Востаннє: 09.12.17
Повідомлень: 416

2017-05-18 11:24  
Нарешті подивився, цікава вийшла цастина. Дякую
Можливо пізніше в колекцію добавлю )

Estranded 
VIP


З нами з: 09.02.14
Востаннє: 13.12.17
Повідомлень: 1010

2017-10-19 17:23  
Непогане завершення серії, фільм сподобався, доволі цікавий поворот подій вкінці. Було очікувано, але все ж.
6/10 — Можна якось глянути і вдруге!

Ваш часовий пояс: GMT + 2 Години

Нова тема   Відповісти