Пастка / Get Out (2017) 720p Ukr/Eng | Sub Eng

Нові коментарі

Нова тема   Відповісти
Автор Повідомлення
Anonymous 







2017-05-01 19:41  
Пастка / Get Out (2017) 720p Ukr/Eng | Sub Eng


Пастка / Get Out (2017) 720p Ukr/Eng | Sub Eng
Тікай, доки не пізно

Жанр: детектив, трилер, жахи
Країна: США

Кінокомпанія: Universal Pictures, Blumhouse Productions
Касові збори (світ): 204 841 416 $ (станом на 08.05.2017)
1 932 153 ₴ (станом на 10.05.2017)
Режисер та сценарист: Джордан Піл / Jordan Peele
Актори: Деніел Калуя / Daniel Kaluuya, Елісон Вільямс / Allison Williams, Кетрін Кінер / Catherine Keener, Бредлі Вітфорд / Bradley Whitford, Калеб Лендрі Джонс / Caleb Landry Jones, Маркус Гендерсон / Marcus Henderson, Бетті Ґебріел / Betty Gabriel, Лейкіт Стенфілд / Lakeith Stanfield, Стівен Рут / Stephen Root, ЛілРел Гаврі / LilRel Howery та інші

Сюжет:
Кріс (Деніел Калуя) - простий темношкірий хлопець, який вже деякий час зустрічається з симпатичною і веселою дівчиною Роуз (Елісон Вільямс). Хлопець отримує запрошення від батьків своєї дівчини погостювати в сімейному маєтку. Кріс відчуває себе досить комфортно в сім'ї Роуз, єдине що його бентежить - дуже дивна поведінка темношкірих, які живуть в цьому невеликому містечку. Всі вони постійно мовчать і роблять незрозумілі речі. Згодом хлопець з’ясовує, що вечірка в заміському маєтку перетворюється на моторошне дійство. Гості поводяться дивно, а господарі практикують гіпноз. Їм потрібна нова жертва – він.

Несподіваний і напружений трилер «Пастка» від творців франшизи «Астрал». В одному з інтерв'ю американському телеканалу Джордан Піл зізнався, що вже готує сценарій для зйомок продовження фільму, що викликав величезний інтерес глядачів.

Офіційний український трейлер

Рейтинг MPAA: R - особам до 17 років рекомендується присутність батьків
Вікова категорія: 16+
Тривалість: 01:44:05
Якість: 720p
Відео:
кодек:
розмір кадру: 1280x532 (2.40:1)
бітрейт: 4600 кб/с

Аудіо # 1:
мова: українська |
озвучення: професійне дубльоване
кодек: 2.0
бітрейт: 192 кб/с
Інформація про озвучення
Переклад: Федор Сидорук
Режисер дубляжу: Анна Пащенко
Звукорежисер: Альона Шиманович
Координатор дубляжу: Мирослава Сидорук
Ролі дублювали: Роман Молодій, Оксана Гринько, Євген Пашин, Лариса Уснак, Артем Мартинішин, Андрій Федінчик, Павло Лі, Сергій Озіряний, Олена Узлюк, Петро Сова та інші.
Фільм надано компанією Universal Pictures. Дубльовано і зміксовано студією LeDoyen на замовлення компаніїї B&H Film Distribution.

Аудіо # 2:
мова: англійська
озвучення: оригінал
кодек: 5.1
бітрейт: 384 кб/с

Субтитри:
мова: англійська
тип: програмні м'які
формат: .srt
Info
Код:
General
Unique ID                      : 235867450435912753223093375805199143731 (0xB1726B2768A334A7951388ADC03ED333)
Complete name                  : D:\Get Out (2017) 720p [Ukr,Eng] [Hurtom].
Format                         :
Format version                 : Version 4 / Version 2
File size                      : 3.76 GiB
Duration                       : 1 h 44 min
Overall bit rate               : 5 168 kb/s
Encoded date                   : UTC 2017-10-25 10:27:05
Writing application            : mkvmerge v9.3.1 ('Mask Machine') 64bit
Writing library                : libebml v1.3.4 + libmatroska v1.4.5

Video
ID                             : 1
Format                         : AVC
Format/Info                    : Advanced Video Codec
Format profile                 : [email protected]
Format settings, CABAC         : Yes
Format settings, ReFrames      : 12 frames
Codec ID                       : V_MPEG4/ISO/AVC
Duration                       : 1 h 44 min
Bit rate                       : 4 600 kb/s
Width                          : 1 280 pixels
Height                         : 534 pixels
Display aspect ratio           : 2.40:1
Frame rate mode                : Constant
Frame rate                     : 23.976 (24000/1001) FPS
Color space                    : YUV
Chroma subsampling             : 4:2:0
Bit depth                      : 8 bits
Scan type                      : Progressive
Bits/(Pixel*Frame)             : 0.281
Stream size                    : 3.34 GiB (89%)
Writing library                : core 148 r2744kMod b97ae06
Encoding settings              : cabac=1 / ref=12 / deblock=1:-3:-3 / analyse=0x3:0x133 / me=umh / subme=11 / psy=1 / fade_compensate=0.00 / psy_rd=1.05:0.00 / mixed_ref=1 / me_range=48 / chroma_me=1 / trellis=2 / 8x8dct=1 / cqm=0 / deadzone=21,11 / fast_pskip=0 / chroma_qp_offset=-2 / threads=17 / lookahead_threads=2 / sliced_threads=0 / nr=0 / decimate=0 / interlaced=0 / bluray_compat=0 / constrained_intra=0 / bframes=8 / b_pyramid=2 / b_adapt=2 / b_bias=0 / direct=3 / weightb=1 / open_gop=0 / weightp=2 / keyint=240 / keyint_min=2 / scenecut=40 / intra_refresh=0 / rc_lookahead=0 / rc=2pass / mbtree=0 / bitrate=4600 / ratetol=1.0 / qcomp=0.70 / qpmin=0 / qpmax=69 / qpstep=4 / cplxblur=20.0 / qblur=0.5 / vbv_maxrate=50000 / vbv_bufsize=30000 / nal_hrd=none / filler=0 / ip_ratio=1.25 / pb_ratio=1.20 / aq=3:0.80
Language                       : English
Default                        : Yes
Forced                         : No

Audio #1
ID                             : 2
Format                         : AC-3
Format/Info                    : Audio Coding 3
Mode extension                 : CM (complete main)
Format settings, Endianness    : Big
Codec ID                       : A_AC3
Duration                       : 1 h 44 min
Bit rate mode                  : Constant
Bit rate                       : 192 kb/s
Channel(s)                     : 2 channels
Channel positions              : Front: L R
Sampling rate                  : 48.0 kHz
Frame rate                     : 31.250 FPS (1536 spf)
Bit depth                      : 16 bits
Compression mode               : Lossy
Stream size                    : 143 MiB (4%)
Language                       : Ukrainian
Default                        : Yes
Forced                         : No

Audio #2
ID                             : 3
Format                         : AC-3
Format/Info                    : Audio Coding 3
Mode extension                 : CM (complete main)
Format settings, Endianness    : Big
Codec ID                       : A_AC3
Duration                       : 1 h 44 min
Bit rate mode                  : Constant
Bit rate                       : 384 kb/s
Channel(s)                     : 6 channels
Channel positions              : Front: L C R, Side: L R, LFE
Sampling rate                  : 48.0 kHz
Frame rate                     : 31.250 FPS (1536 spf)
Bit depth                      : 16 bits
Compression mode               : Lossy
Stream size                    : 286 MiB (7%)
Title                          : Original
Language                       : English
Default                        : No
Forced                         : No

Text
ID                             : 4
Format                         : UTF-8
Codec ID                       : S_TEXT/UTF8
Codec ID/Info                  : UTF-8 Plain Text
Duration                       : 1 h 38 min
Bit rate                       : 53 b/s
Count of elements              : 1396
Stream size                    : 38.5 KiB (0%)
Title                          : Full
Language                       : English
Default                        : No
Forced                         : No

Menu
00:00:00.000                   : en:00:00:00.000
00:04:52.834                   : en:00:04:52.834
00:10:13.530                   : en:00:10:13.530
00:14:02.258                   : en:00:14:02.258
00:19:07.480                   : en:00:19:07.480
00:21:49.433                   : en:00:21:49.433
00:26:07.357                   : en:00:26:07.357
00:30:51.016                   : en:00:30:51.016
00:37:19.487                   : en:00:37:19.487
00:42:16.868                   : en:00:42:16.868
00:48:03.172                   : en:00:48:03.172
00:54:13.584                   : en:00:54:13.584
00:57:38.288                   : en:00:57:38.288
01:03:33.810                   : en:01:03:33.810
01:10:48.911                   : en:01:10:48.911
01:15:36.365                   : en:01:15:36.365
01:22:02.543                   : en:01:22:02.543
01:26:13.418                   : en:01:26:13.418
01:32:24.414                   : en:01:32:24.414
01:40:22.391                   : en:01:40:22.391

Джерело: &
Особиста оцінка: 9 - гарна стрічка!
Дяка панам Sehrg-Gut, leicheman за придбану доріжку і за синхронізацію Electroz


 Трекер:    Зареєстрований   

Завантажити / скачати фільм українською



відео для новачків



 Зареєстрований:   2017-10-25 12:40
 Розмір:   3.76 GB 
 Оцінка фільму:   7.2/10 (Голосів: 54)
 Прекрасний фільм, усім раджу переглянути!
   
Інші релізи
   Пастка / Get Out (2017) Remux 1080p Ukr/Eng | Sub Eng IronBee  20 / 0   24.09 GB   2017-10-28 19:19 
   Пастка / Get Out (2017) legos25  48 / 0   1.37 GB   2017-10-23 23:32 
   Пастка / Get Out (2017) AVC Ukr/Eng | Sub Eng Electroz  71 / 4   1.41 GB   2017-10-23 22:34 
   Пастка / Get Out (2017) 1080p Ukr/Eng | Sub Eng Bod_zik99  44 / 0   11.53 GB   2017-10-23 18:50 
Bod_zik99 
VIP


З нами з: 28.12.13
Востаннє: 18.11.17
Повідомлень: 1253

2017-05-01 19:54  
Дуже якісний фільм.
Anonymous 







2017-05-10 16:30  
10.05 - Реліз оновлено!
Замінено відеоряд на 720p @ 3981 kbps

Anonymous 







2017-05-12 17:13  
12.05 - Реліз оновлено!
Замінено відеоряд на 720p @ 4600 kbps

Explorer UA 
Новенький


З нами з: 31.08.16
Востаннє: 18.11.17
Повідомлень: 12

2017-05-14 15:50  
Потужний фільм
sanzal 
Новенький


З нами з: 27.11.16
Востаннє: 18.11.17
Повідомлень: 16

2017-05-15 16:21  
Фільм один раз можна переглянути, але ідея не нова.
Сюжет дуже схожий на "Ключ від усіх дверей / The Skeleton Key (2005)"

[email protected] 
Відео Гуртом - підтримка та поширення
Відео Гуртом - підтримка та поширення


З нами з: 16.06.12
Востаннє: 16.11.17
Повідомлень: 1217

2017-05-28 19:30  
Дуже справив враження момент гіпнозу Happy, аж страшно стало наскільки професійні "мізкоправи" можуть зазомбувати людину Happy
Цікаво чи можливо таке насправді? ахахах Happy

Недарма існує такий міф про психологів, що вони можуть впливати на людей Wide grin

На колоночках із саббуфером в темній кімнаті атмосферка та що треба Happy

Kel 
Новенький


З нами з: 31.10.10
Востаннє: 19.11.17
Повідомлень: 14

2017-06-01 20:17  
Класний фільм! Дещо новеньке
vovang6 
Свій


З нами з: 27.08.12
Востаннє: 18.11.17
Повідомлень: 96

2017-10-25 11:28  
Мені сподобався, ідея класна. Ґуд муві.
Anonymous 







2017-10-25 12:45  
Оновив реліз. Звук тепер з айтюнсу.
Дяка панам Sehrg-Gut, leicheman за придбану доріжку і за синхронізацію Electroz.

ANDREW-LVIV 
Свій


З нами з: 11.02.09
Востаннє: 11.11.17
Повідомлень: 76

2017-10-31 23:28  
Кіно сподобалося і по великому рахунку через те, як кіно завершилося.
Це вже друге кіно, яке має не типовий для фільмів жахів завершення.
ой воно - Останній будинок ліворуч.

AMOROSO 
Частий відвідувач


З нами з: 01.01.12
Востаннє: 12.11.17
Повідомлень: 29

2017-11-02 19:24  
Рейтинг виправданий, варто дивитися
Ваш часовий пояс: GMT + 2 Години

Нова тема   Відповісти