Післявесільний розгром / A Few Less Men (2017) 1080p

Нові коментарі

Нова тема   Відповісти
Автор Повідомлення
Anonymous 







2017-04-30 15:42  
Післявесільний розгром / A Few Less Men (2017) 1080p



Жанр: комедія, чорна комедія
Країна: Австралія



Кінокомпанія: Gorean Films
Режисер: Марк Лампрелл / Mark Lamprell
Актори: Дакр Монтгомері / Dacre Montgomery, Ксав'є Семюел / Xavier Samuel, Кріс Маршалл / Kris Marshall, Райан Корр / Ryan Corr, Кевін Бішоп / Kevin Bishop, Дебора Мейлман / Deborah Mailman та інші

Сюжет:
Відразу після весілля Девіда трагічно і безглуздо гине його друг Люк. Брат Люка, Майк, змушує Девіда і його друзів Грема і Тома перевезти труп з Австралії до Великої Британії. Через безглузду випадковість літак з хлопцями розбивається. Але грізний Майк обіцяє зробити з друзями страшні речі, якщо вони не привезуть його брата вчасно. Кращого стимулу для Девіда, Грема і Тома знайти складно... Вони роблять все можливе і неможливе, потрапляють в неймовірні ситуації і терплять страшні речі, щоб довезти Люка.
Офіційний український трейлер:

Вікова категорія: 18+

Тривалість: 01:28:12
Якість: 1080p
Відео:
кодек:
розмір кадру: 1920 х 800
бітрейт: 5120 кб/с

Аудіо # 1:
мова: українська
переклад: багатоголосий закадровий | ААА-sound
кодек: 5.1
бітрейт: 384 кб/с
Інформація про озвучення
Переклад: Юлія Когут
Режисер: Олександр Єфімов
Ролі озвучили: Андрій Федінчик, Ярослав Чорненький, Юлія Перенчук, Дмитро Завадський, Катерина Буцька, Анатолій Зіновенко та інші
Фільм озвучено студією ААА-sound у 2017 році на замовлення компанії "Вольга Україна"
Аудіо # 2:
примітка: на момент створення та оновлення релізу оригінальна доріжка була відсутня в загальному доступі, її буде додано згодом

Збережено оригінальні розділи
Info
Код:
Complete name               : A Few Less Men (2017) 1080p [Hurtom].
Format                      :
Format version              : Version 4 / Version 2
File size                   : 3.38 GiB
Duration                    : 1 h 28 min
Overall bit rate            : 5 493 kb/s
Movie name                  : Післявесільний розгром / A Few Less Men (2017) 1080p [Hurtom]
Released date               : 2017
Cover                       : Yes
Comment                     : http://www.imdb.com/title/tt3784652/
Attachments                 : cover.jpg
ARTIST                      : Дакр Монтгомері / Dacre Montgomery, Ксав'є Семюел / Xavier Samuel, Кріс Маршалл / Kris Marshall, Райан Корр / Ryan Corr, Кевін Бішоп / Kevin Bishop, Дебора Мейлман / Deborah Mailman та інші
DIRECTOR                    : Марк Лампрелл / Mark Lamprell
GENRE                       : комедія, чорна комедія 18+
SYNOPSIS                    : Відразу після весілля Девіда трагічно і безглуздо гине його друг Люк. Брат Люка, Майк, змушує Девіда і його друзів Грема і Тома перевезти труп з Австралії до Великої Британії. Через безглузду випадковість літак з хлопцями розбивається. Але грізний Майк обіцяє зробити з друзями страшні речі, якщо вони не привезуть його брата вчасно. Кращого стимулу для Девіда, Грема і Тома знайти складно... Вони роблять все можливе і неможливе, потрапляють в неймовірні ситуації і терплять страшні речі, щоб довезти тіло Люка...
Url                         : https://toloka.to/t81650

Video
ID                          : 1
Format                      : AVC
Format/Info                 : Advanced Video Codec
Format profile              : [email protected]
Format settings, CABAC      : Yes
Format settings, ReFrames   : 4 frames
Codec ID                    : V_MPEG4/ISO/AVC
Duration                    : 1 h 28 min
Bit rate                    : 5 120 kb/s
Width                       : 1 920 pixels
Height                      : 800 pixels
Display aspect ratio        : 2.40:1
Frame rate mode             : Constant
Frame rate                  : 25.000 FPS
Color space                 : YUV
Chroma subsampling          : 4:2:0
Bit depth                   : 8 bits
Scan type                   : Progressive
Bits/(Pixel*Frame)          : 0.133
Stream size                 : 3.15 GiB (93%)
Title                       : Післявесільний розгром / A Few Less Men (2017) 1080p [Hurtom]
Writing library             : core 142
Encoding settings           : cabac=1 / ref=3 / deblock=1:0:0 / analyse=0x3:0x113 / me=hex / subme=7 / psy=1 / psy_rd=1.00:0.00 / mixed_ref=1 / me_range=16 / chroma_me=1 / trellis=1 / 8x8dct=1 / cqm=0 / deadzone=21,11 / fast_pskip=1 / chroma_qp_offset=-2 / threads=48 / lookahead_threads=6 / sliced_threads=0 / nr=0 / decimate=1 / interlaced=0 / bluray_compat=0 / constrained_intra=0 / bframes=6 / b_pyramid=2 / b_adapt=1 / b_bias=0 / direct=1 / weightb=1 / open_gop=0 / weightp=2 / keyint=50 / keyint_min=26 / scenecut=0 / intra_refresh=0 / rc_lookahead=40 / rc=2pass / mbtree=1 / bitrate=5120 / ratetol=1.0 / qcomp=0.60 / qpmin=0 / qpmax=69 / qpstep=4 / cplxblur=20.0 / qblur=0.5 / vbv_maxrate=7680 / vbv_bufsize=20480 / nal_hrd=none / filler=0 / ip_ratio=1.40 / aq=1:1.00
Language                    : English
Default                     : Yes
Forced                      : No

Audio
ID                          : 2
Format                      : AC-3
Format/Info                 : Audio Coding 3
Format settings, Endianness : Big
Codec ID                    : A_AC3
Duration                    : 1 h 28 min
Bit rate mode               : Constant
Bit rate                    : 384 kb/s
Channel(s)                  : 6 channels
Channel positions           : Front: L C R, Side: L R, LFE
Sampling rate               : 48.0 kHz
Frame rate                  : 31.250 FPS (1536 spf)
Bit depth                   : 16 bits
Compression mode            : Lossy
Stream size                 : 242 MiB (7%)
Title                       : MVO [AAA-sound, iTunes] 5.1 384 Kbps [HDClub]
Language                    : Ukrainian
Service kind                : Complete Main
Default                     : Yes
Forced                      : Yes

Menu
00:00:00.000                : en:1
00:08:04.360                : en:2
00:11:31.640                : en:3
00:17:27.640                : en:4
00:23:15.960                : en:5
00:29:42.960                : en:6
00:34:33.600                : en:7
00:38:56.840                : en:8
00:44:03.600                : en:9
00:48:47.480                : en:10
00:53:11.160                : en:11
00:58:13.440                : en:12
01:03:41.960                : en:13
01:09:10.880                : en:14
01:12:49.640                : en:15


Джерело:

19.05 реліз оновлено!
Замінено українську доріжку з 2.0 на 5.1 з iTunes
Прохання перезавантажити торрент.


Золотий реліз (завантажене не впливає на рейтинг)
 Трекер:    Зареєстрований   

Завантажити / скачати фільм українською



відео для новачків



 Зареєстрований:   2017-05-19 17:54
 Розмір:   3.38 GB 
 Оцінка фільму:   6.7/10 (Голосів: 36)
   
Інші релізи
   Післявесільний розгром / A Few Less Men (2017) AVC 11FrYkT  25 / 1   1.53 GB   2017-05-19 20:21 
   Післявесільний розгром / A Few Less Men (2017) AngryBirdsUA  101 / 1   1.45 GB   2017-04-30 13:18 
0mage0 
Новенький


З нами з: 06.10.15
Востаннє: 23.05.17
Повідомлень: 20

2017-05-04 21:48  
Що ж курили автори цього фільму?
Reborn3854 
Свій


З нами з: 03.10.10
Востаннє: 22.05.17
Повідомлень: 56

2017-05-06 21:47  
Знімати таке в 2017? Confused Може як би мені було років з 10 то дивився би, а так... Дуже трешово виглядає. Neutral
Anonymous 







2017-05-19 17:55  
19.05 реліз оновлено!
Замінено українську доріжку з 2.0 на 5.1 з iTunes
Прохання перезавантажити торрент.

Ваш часовий пояс: GMT + 2 Години

Нова тема   Відповісти