1914 - Eschatology of war (2015) [FLAC] | Blackened Death / Sludge

Нові коментарі

Нова тема   Відповісти
Останній раз роздавалося kolpavel (2017-09-22)
Автор Повідомлення
kolpavel 
VIP


З нами з: 04.05.14
Востаннє: 22.09.17
Повідомлень: 1169

2017-04-29 21:45  
1914 - Eschatology of war (2015) [FLAC] | Blackened Death / Sludge

1914 - Eschatology of war (2015) [FLAC] | Blackened Death / Sludge


Стиль: Blackened Death Sludge
Країна, місто: Україна, Львів
Видавець: Archaic Sound (Каталог ID: RITE 020)
Виконавці:
Capt. John B. Kumar (K Company 307th Infantry Regiment) - вокал
Pvt. Liam Fissen (A Company 308th Infantry Regiment) - гітара
Pvt. Armen Bleckley (K Company 160th Infantry Regiment) - бас
Sgt. Andrew Knifeman (157th Field Artillery Regiment\40th Infantry Division (Mechanized)) - гітара
1Lt. Serge Russell (C Company 306th Machine Gun Battalion) - ударні

Пісні:
    01. War in - 01:36
    02. Gas mask - 05:54
    03. Frozen in trenches (Christmas truce) - 05:55
    04. Verdun - 05:25
    05. Caught in the crossfire - 06:17
    06. Zeppelin raids - 05:09
    07. Ottoman rise - 08:57
    08. Arditi - 04:58
    09. Battlefield - 05:41
    10. War out - 01:55

Тривалість: 00:51:51
Мова: англiйська
Аудіо-кодек: FLAC
Бітрейт: 995 кб/с
Джерело: трекер
Додаткова інформація:
EAC
Exact Audio Copy V1.1 from 23. June 2015

Отчёт EAC об извлечении, выполненном 26. февраля 2017, 17:02

1914 / Eschatology of War

Дисковод: ASUS DRW-24F1MT Adapter: 1 ID: 0

Режим чтения : Достоверность
Использование точного потока : Да
Отключение кэша аудио : Да
Использование указателей C2 : Нет

Коррекция смещения при чтении : 6
Способность читать области Lead-in и Lead-out : Нет
Заполнение пропущенных сэмплов тишиной : Да
Удаление блоков с тишиной в начале и конце : Нет
При вычислениях CRC использовались нулевые сэмплы : Да
Интерфейс : Встроенный Win32-интерфейс для Win NT/2000

Выходной формат : Пользовательский кодировщик
Выбранный битрейт : 1024 kBit/s
Качество : Высокий
Добавление ID3-тега : Нет
Утилита сжатия : C:\Program Files (x86)\Exact Audio Copy\Flac\flac.exe
Дополнительные параметры : -V -8 -T "Date=%year%" -T "Genre=%genre%" %source%

TOC извлечённого CD

Трек | Старт | Длительность | Начальный сектор | Конечный сектор
---------------------------------------------------------------------
1 | 0:00.00 | 1:36.68 | 0 | 7267
2 | 1:36.68 | 5:54.31 | 7268 | 33848
3 | 7:31.24 | 5:55.31 | 33849 | 60504
4 | 13:26.55 | 5:25.08 | 60505 | 84887
5 | 18:51.63 | 6:17.41 | 84888 | 113203
6 | 25:09.29 | 5:09.07 | 113204 | 136385
7 | 30:18.36 | 8:57.30 | 136386 | 176690
8 | 39:15.66 | 4:58.36 | 176691 | 199076
9 | 44:14.27 | 5:41.32 | 199077 | 224683
10 | 49:55.59 | 1:55.16 | 224684 | 233324

Характеристики диапазона извлечения и сообщения об ошибках

Выбранный диапазон

Имя файла G:\ВСЕ ЗАГРУЗКИ\sking\1914 - Eschatology of War (2015)\1914 - Eschatology of War.wav

Пиковый уровень 99.1 %
Скорость извлечения 6.7 X
Качество диапазона 100.0 %
CRC теста A8EDB297
CRC копии A8EDB297
Копирование... OK

Ошибок не произошло

AccurateRip: сводка

Трек 1 : извлечено точно (доверие 3) [6E6D3E33] (AR v2)
Трек 2 : извлечено точно (доверие 3) [99009410] (AR v2)
Трек 3 : извлечено точно (доверие 3) [7E5D64CB] (AR v2)
Трек 4 : извлечено точно (доверие 3) [E6D79432] (AR v2)
Трек 5 : извлечено точно (доверие 3) [B4A6164E] (AR v2)
Трек 6 : извлечено точно (доверие 3) [9BC19640] (AR v2)
Трек 7 : извлечено точно (доверие 3) [7B8A8A17] (AR v2)
Трек 8 : извлечено точно (доверие 3) [1C0507CE] (AR v2)
Трек 9 : извлечено точно (доверие 3) [F0827C21] (AR v2)
Трек 10 : извлечено точно (доверие 3) [B38DA9B8] (AR v2)

Все треки извлечены точно

Конец отчёта

---- CUETools DB Plugin V2.1.6

[CTDB TOCID: vWFQUNDSeAYSUphIG4Z77qjZ_9Q-] found
Submit result: vWFQUNDSeAYSUphIG4Z77qjZ_9Q- has been confirmed
Track | CTDB Status
1 | (4/4) Accurately ripped
2 | (4/4) Accurately ripped
3 | (4/4) Accurately ripped
4 | (4/4) Accurately ripped
5 | (4/4) Accurately ripped
6 | (4/4) Accurately ripped
7 | (4/4) Accurately ripped
8 | (4/4) Accurately ripped
9 | (4/4) Accurately ripped
10 | (4/4) Accurately ripped

==== Контрольная сумма отчёта 73C1DED8CC1C385D9497FF1D1332C53FA33B74B61BD48BDFA379141F198BEBFF ====
(.CUE)
REM GENRE "Black Metal"
REM DATE 2015
REM DISCID 890C270A
REM COMMENT "ExactAudioCopy v1.1"
PERFORMER "1914"
TITLE "Eschatology of War"
FILE "1914 - Eschatology of War.flac" WAVE
TRACK 01 AUDIO
TITLE "War In"
PERFORMER "1914"
FLAGS DCP
INDEX 01 00:00:00
TRACK 02 AUDIO
TITLE "Gasmask"
PERFORMER "1914"
FLAGS DCP
INDEX 01 01:36:68
TRACK 03 AUDIO
TITLE "Frozen in Trenches"
PERFORMER "1914"
FLAGS DCP
INDEX 01 07:31:24
TRACK 04 AUDIO
TITLE "Verdun"
PERFORMER "1914"
FLAGS DCP
INDEX 01 13:26:55
TRACK 05 AUDIO
TITLE "Caught in the Crossfire"
PERFORMER "1914"
FLAGS DCP
INDEX 01 18:51:63
TRACK 06 AUDIO
TITLE "Zeppelin Raids"
PERFORMER "1914"
FLAGS DCP
INDEX 01 25:09:29
TRACK 07 AUDIO
TITLE "Ottoman Rise"
PERFORMER "1914"
FLAGS DCP
INDEX 01 30:18:36
TRACK 08 AUDIO
TITLE "Arditi"
PERFORMER "1914"
FLAGS DCP
INDEX 01 39:15:66
TRACK 09 AUDIO
TITLE "Battlefield"
PERFORMER "1914"
FLAGS DCP
INDEX 01 44:14:27
TRACK 10 AUDIO
TITLE "War Out"
PERFORMER "1914"
FLAGS DCP
INDEX 01 49:55:59


Якщо Ви справді бажаєте підтримати українське - після прослуховування, якщо музика вам сподобалась, придбайте ліцензійний диск. Підтримаймо вітчизняних виконавців!


Срібний реліз (на рейтинг впливає 50% завантаженого)
 Трекер:    Зареєстрований   

Завантажити / скачати українську музику



відео для новачків



 Зареєстрований:   2017-04-29 21:45
 Розмір:   379 MB 
 Оцінка музики:   10/10 (Голосів: 2)
   
ssTAss 
Модератор музики


З нами з: 05.07.08
Востаннє: 23.09.17
Повідомлень: 12003

2017-04-29 23:12  
kolpavel написано:
Мова: українська

а за назвами не скажеш Wink (2)

kolpavel 
VIP


З нами з: 04.05.14
Востаннє: 22.09.17
Повідомлень: 1169

2017-04-30 09:49  
Виправив, виправив, каюсь.
Ваш часовий пояс: GMT + 2 Години

Нова тема   Відповісти