Балто / Balto (1995)

Нові коментарі

Нова тема   Відповісти
Автор Повідомлення
Anonymous 







2017-04-29 11:22  
Балто / Balto (1995)

Альтернативний постер


Жанр: анімація, драма, пригодницький, сімейний, історичний
Країна: США



Кінокомпанія: Amblimation, Amblin Entertainment, Universal Pictures
Продюсер: Стівен Спілберг / Steven Spielberg
Режисер: Саймон Веллс / Simon Wells
Актори: Кевін Бейкон / Kevin Bacon, Боб Хоскінс / Bob Hoskins, Бріджет Фонда / Bridget Fonda, Джим Камінгс / Jim Cummings, Філ Коллінз / Phil Collins, Джек Енджел / Jack Angel, Денні Манн / Danny Mann та інші

Сюжет:
Наполовину лайка, наполовину вовк, Балто й сам не знає ким він є насправді . Усіма гнаний бурлака в крижаній пустелі Аляски. Тільки його друзі російський полярний гусак Борис, ведмежата Мак і Лак і красуня-лайка Дженна впевнені, що хоч Балто і не такий як усі, але в його грудях б'ється шляхетне серце.

Одного разу трапляється нещастя. Епідемія дифтерії охопила дітей невеликого селища, а люта хуртовина зробила непрохідними всі дороги. Лише собача запряжка може подолати шістсот миль через сліпучий арктичний шторм і привезти рятівні ліки.

Але собаки збилися з дороги десь на замерзлих просторах. Тепер тільки Балто може знайти запряжку та врятувати дітей, а разом з тим стати героєм і справжньою легендою!


Рейтинг MPAA: G - нема вікових обмежень
Вікова категорія: 0+

Тривалість: 01:17:37
Якість: [Hurtom]
Відео:
кодек:
розмір кадру: 720 х 384
бітрейт: 2280 кб/с

Аудіо # 1:
мова: українська
переклад: багатоголосий закадровий | Так Треба Продакшн
кодек: 5.1
бітрейт: 384 кб/с
Info
Код:
General
Complete name               : Balto (1995) [Ukr] [Hurtom].avi
Format                      : AVI
Format/Info                 : Audio Video Interleave
File size                   : 1.45 GiB
Duration                    : 1 h 17 min
Overall bit rate            : 2 674 kb/s
Movie name                  : Балто / Balto (1995) [Hurtom]
Director                    : igor911
Genre                       : анімація, драма, пригодницький, сімейний, історичний
Writing application         : VirtualDubModUkr 1.5.10.2 (build 2542/release)
Writing library             : VirtualDubMod build 2542/release

Video
ID                          : 0
Format                      : MPEG-4 Visual
Format profile              : Advanced [email protected]
Format settings, BVOP       : 1
Format settings, QPel       : No
Format settings, GMC        : No warppoints
Format settings, Matrix     : Default (H.263)
Codec ID                    :
Codec ID/Hint               :
Duration                    : 1 h 17 min
Bit rate                    : 2 280 kb/s
Width                       : 720 pixels
Height                      : 384 pixels
Display aspect ratio        : 1.85:1
Frame rate                  : 23.976 (24000/1001) FPS
Color space                 : YUV
Chroma subsampling          : 4:2:0
Bit depth                   : 8 bits
Scan type                   : Progressive
Compression mode            : Lossy
Bits/(Pixel*Frame)          : 0.344
Stream size                 : 1.24 GiB (85%)
Writing library             : 67

Audio
ID                          : 1
Format                      : AC-3
Format/Info                 : Audio Coding 3
Format settings, Endianness : Big
Codec ID                    : 2000
Duration                    : 1 h 17 min
Bit rate mode               : Constant
Bit rate                    : 384 kb/s
Channel(s)                  : 6 channels
Channel positions           : Front: L C R, Side: L R, LFE
Sampling rate               : 48.0 kHz
Frame rate                  : 31.250 FPS (1536 spf)
Bit depth                   : 16 bits
Compression mode            : Lossy
Stream size                 : 213 MiB (14%)
Alignment                   : Split accross interleaves
Interleave, duration        : 42  ms (1.00 video frame)
Interleave, preload duratio : 500  ms
Title                       : UKR MVO [ICTV, TTP] [Hurtom]
Service kind                : Complete Main


Джерело:
Подяка за український звук rooster'у та karvai0, за постери - Deluxeman'у та Sherlock249


Срібний реліз (на рейтинг впливає 50% завантаженого)
 Трекер:    Зареєстрований   

Завантажити / скачати мультфільм українською



відео для новачків



 Зареєстрований:   2017-04-29 16:29
 Розмір:   1.45 GB 
 Оцінка мультфільму:   6.7/10 (Голосів: 28)
   
Інші релізи
   Балто / Balto (1995) 1080p Ukr/Eng | Sub Eng igor911  7 / 0   7.13 GB   2017-04-30 19:53 
   Балто / Balto (1995) AVC igor911  7 / 0   2.28 GB   2017-04-29 09:12 
   Балто / Balto (1995) 720p Ukr/Eng | Sub Eng igor911  4 / 0   4.67 GB   2017-04-28 14:35 
   Балто / Balto (1995) Remux 1080p Ukr/Eng | Sub Eng igor911  6 / 0   16.83 GB   2017-04-27 18:48 
   Балто / Balto (1995) Ukr/Eng rooster  10 / 0   1.45 GB   2011-02-05 16:24 
bot 
робот


З нами з: 30.09.07
Востаннє: 26.05.05
Повідомлень: 17367

2017-04-29 16:29  
Тему перенесено з Анонси релізів до форуму Мультфільми в HD


igor911

Ваш часовий пояс: GMT + 2 Години

Нова тема   Відповісти