Балто / Balto (1995) AVC

Нові коментарі

Нова тема   Відповісти
Автор Повідомлення
Anonymous 







2017-04-29 07:26  
Балто / Balto (1995) AVC

Альтернативний постер


Жанр: анімація, драма, пригодницький, сімейний, історичний
Країна: США



Кінокомпанія: Amblimation, Amblin Entertainment, Universal Pictures
Продюсер: Стівен Спілберг / Steven Spielberg
Режисер: Саймон Веллс / Simon Wells
Актори: Кевін Бейкон / Kevin Bacon, Боб Хоскінс / Bob Hoskins, Бріджет Фонда / Bridget Fonda, Джим Камінгс / Jim Cummings, Філ Коллінз / Phil Collins, Джек Енджел / Jack Angel, Денні Манн / Danny Mann та інші

Сюжет:
Наполовину лайка, наполовину вовк, Балто й сам не знає ким він є насправді . Усіма гнаний бурлака в крижаній пустелі Аляски. Тільки його друзі російський полярний гусак Борис, ведмежата Мак і Лак і красуня-лайка Дженна впевнені, що хоч Балто і не такий як усі, але в його грудях б'ється шляхетне серце.

Одного разу трапляється нещастя. Епідемія дифтерії охопила дітей невеликого селища, а люта хуртовина зробила непрохідними всі дороги. Лише собача запряжка може подолати шістсот миль через сліпучий арктичний шторм і привезти рятівні ліки.

Але собаки збилися з дороги десь на замерзлих просторах. Тепер тільки Балто може знайти запряжку й урятувати дітей, а разом із тим, стати героєм і справжньою легендою!


Рейтинг MPAA: G - нема вікових обмежень
Вікова категорія: 0+

Тривалість: 01:17:37
Якість: AVC
Відео:
кодек:
розмір кадру: 1032 х 558
бітрейт: 3810 кб/с [crf=18]

Аудіо # 1:
мова: українська
переклад: багатоголосий закадровий | Так Треба Продакшн
кодек: 5.1
бітрейт: 384 кб/с

Присутні поіменовані розділи на основі DVD R1
Info
Код:
Complete name               : Balto (1995) [Ukr] AVC [Hurtom].
Format                      :
Format version              : Version 4 / Version 2
File size                   : 2.28 GiB
Duration                    : 1 h 17 min
Overall bit rate            : 4 196 kb/s
Movie name                  : Балто / Balto (1995) [Ukr] AVC [Hurtom]
Released date               : 1995
Writing library             : libebml v1.3.4 + libmatroska v1.4.5
Cover                       : Yes
Comment                     : http://www.imdb.com/title/tt0112453/
Attachments                 : cover.jpg
ARTIST                      : Кевін Бейкон / Kevin Bacon, Боб Хоскінс / Bob Hoskins, Бріджет Фонда / Bridget Fonda, Джим Камінгс / Jim Cummings, Філ Коллінз / Phil Collins, Джек Енджел / Jack Angel, Денні Манн / Danny Mann та інші
DIRECTOR                    : Саймон Веллс / Simon Wells
GENRE                       : анімація, драма, пригодницький, сімейний, історичний
SYNOPSIS                    : Наполовину лайка, наполовину вовк, Балто й сам не знає ким він є насправді . Усіма гнаний бурлака в крижаній пустелі Аляски. Тільки його друзі російський полярний гусак Борис, ведмежата Мак і Лак і красуня-лайка Дженна впевнені, що хоч Балто і не такий як усі, але в його грудях б'ється шляхетне серце. /  / Одного разу трапляється нещастя. Епідемія дифтерії охопила дітей невеликого селища, а люта хуртовина зробила непрохідними всі дороги. Лише собача запряжка може подолати шістсот миль через сліпучий арктичний шторм і привезти рятівні ліки. /  / Але собаки збилися з дороги десь на замерзлих просторах. Тепер тільки Балто може знайти запряжку й урятувати дітей, а разом із тим, стати героєм і справжньою легендою!
Url                         : https://toloka.to/t81623

Video
ID                          : 1
Format                      : AVC
Format/Info                 : Advanced Video Codec
Format profile              : [email protected]
Format settings, CABAC      : Yes
Format settings, ReFrames   : 10 frames
Codec ID                    : V_MPEG4/ISO/AVC
Duration                    : 1 h 17 min
Bit rate                    : 3 810 kb/s
Width                       : 1 032 pixels
Height                      : 558 pixels
Display aspect ratio        : 1.85:1
Frame rate mode             : Constant
Frame rate                  : 23.976 (24000/1001) FPS
Color space                 : YUV
Chroma subsampling          : 4:2:0
Bit depth                   : 8 bits
Scan type                   : Progressive
Bits/(Pixel*Frame)          : 0.276
Stream size                 : 2.07 GiB (91%)
Title                       : Балто / Balto (1995) AVC [-=DoMiNo=-]
Writing library             : core 148 r2762M 90a61ec
Encoding settings           : cabac=1 / ref=10 / deblock=1:-3:-3 / analyse=0x3:0x133 / me=umh / subme=11 / psy=1 / psy_rd=1.00:0.10 / mixed_ref=1 / me_range=48 / chroma_me=1 / trellis=2 / 8x8dct=1 / cqm=0 / deadzone=21,11 / fast_pskip=0 / chroma_qp_offset=-3 / threads=6 / lookahead_threads=1 / sliced_threads=0 / nr=0 / decimate=1 / interlaced=0 / bluray_compat=0 / constrained_intra=0 / bframes=12 / b_pyramid=2 / b_adapt=2 / b_bias=0 / direct=3 / weightb=1 / open_gop=0 / weightp=2 / keyint=230 / keyint_min=23 / scenecut=40 / intra_refresh=0 / rc=crf / mbtree=0 / crf=18.0 / qcomp=0.60 / qpmin=0 / qpmax=69 / qpstep=4 / ip_ratio=1.40 / pb_ratio=1.30 / aq=1:1.00
Language                    : English
Default                     : Yes
Forced                      : No

Audio
ID                          : 2
Format                      : AC-3
Format/Info                 : Audio Coding 3
Format settings, Endianness : Big
Codec ID                    : A_AC3
Duration                    : 1 h 17 min
Bit rate mode               : Constant
Bit rate                    : 384 kb/s
Channel(s)                  : 6 channels
Channel positions           : Front: L C R, Side: L R, LFE
Sampling rate               : 48.0 kHz
Frame rate                  : 31.250 FPS (1536 spf)
Bit depth                   : 16 bits
Compression mode            : Lossy
Stream size                 : 213 MiB (9%)
Title                       : MVO [ICTV, TTP] 5.1 384 Kbps [Hurtom-rooster;HDClub]
Language                    : Ukrainian
Service kind                : Complete Main
Default                     : Yes
Forced                      : Yes

Menu
00:00:00.000                : en:Opening
00:00:37.000                : en:In Central Park
00:03:03.875                : en:The Winter of 1925
00:10:17.242                : en:The Half Breed
00:24:57.709                : en:Quarantine
00:26:20.709                : en:The Fastest Dog
00:32:31.310                : en:Lost...
00:34:32.310                : en:Balto's Quest
00:38:36.810                : en:The Steele's Big Slip
00:40:08.377                : en:Balto & the Bear
00:43:29.877                : en:The Rescuers
00:48:47.678                : en:The New Leader
00:54:42.646                : en:The Survivor
00:57:48.046                : en:Time of the Wolf
01:02:14.046                : en:Avalanche!
01:03:06.780                : en:The Ice Cavern
01:04:56.880                : en:A Hero!
01:10:33.047                : en:The Idomitable Spirit
01:12:27.514                : en:End Titles


Джерело: & &
Подяка за український звук rooster'у та karvai0, за постери - Deluxeman'у та Sherlock249


Срібний реліз (на рейтинг впливає 50% завантаженого)
 Трекер:    Зареєстрований   

Завантажити / скачати мультфільм українською



відео для новачків



 Зареєстрований:   2017-04-29 09:12
 Розмір:   2.28 GB 
 Оцінка мультфільму:   3.1/10 (Голосів: 13)
   
Інші релізи
   Балто / Balto (1995) 1080p Ukr/Eng | Sub Eng igor911  1 / 0   7.13 GB   2017-04-30 19:53 
   Балто / Balto (1995) igor911  10 / 2   1.45 GB   2017-04-29 16:29 
   Балто / Balto (1995) 720p Ukr/Eng | Sub Eng igor911  4 / 0   4.67 GB   2017-04-28 14:35 
   Балто / Balto (1995) Remux 1080p Ukr/Eng | Sub Eng igor911  7 / 0   16.83 GB   2017-04-27 18:48 
   Балто / Balto (1995) Ukr/Eng rooster  10 / 0   1.45 GB   2011-02-05 16:24 
bot 
робот


З нами з: 30.09.07
Востаннє: 26.05.05
Повідомлень: 17420

2017-04-29 09:11  
Тему перенесено з Анонси релізів до форуму Мультфільми


igor911

Ваш часовий пояс: GMT + 2 Години

Нова тема   Відповісти