Співай / Sing (2016) Remux 1080p Ukr/Eng | Sub Eng

Нові коментарі

Нова тема   Відповісти
Автор Повідомлення
Anonymous 







2017-04-29 00:47  
Співай / Sing (2016) Remux 1080p Ukr/Eng | Sub Eng

Усі українські постери


















Жанр: анімація, комедія, мюзикл
Країна: США



Кінокомпанія: Universal Pictures, Illumination Entertainment
Режисер: Гарт Дженнінгс / Garth Jennings
Актори: Метью МакКонаґі / Matthew McConaughey, Різ Візерспун / Reese Witherspoon, Сет МакФарлейн / Seth MacFarlane, Скарлет Йогансен / Scarlett Johansson, Джон Сі Рейллі / John C. Reilly, Тарон Еджертон / Taron Egerton, Торі Келлі / Tori Kelly, Дженніфер Сондерс / Jennifer Saunders, Нік Кролл / Nick Kroll, Гарт Дженнінгс / Garth Jennings та інші

Сюжет:
Творці "Посіпак" оголошують старт небаченої досі пісенної битви талантів! Директор колись успішного театру коала Бастер хоче повернути своєму закладу славу і визнання. Він твердо налаштований організувати найграндіозніше у світі шоу. На прослуховування запрошено усіх! І навіть якщо ти сором'язливе слоненя-підліток, рішуча крихітна миша, заклопотана мама-свинка, крутий горила-гангстер чи дикобразиха-рокерка – не вагайся, приходь і співай на повні груди, порви усіх улюбленими хітами. Це твій шанс!
Офіційні українські трейлери:




Рейтинг MPAA: PG - рекомендується присутність батьків
Вікова категорія: 6+
Тривалість: 01:47:53
Якість: Remux
Відео:
кодек:
розмір кадру: 1920 х 1080
бітрейт: 30,9 Мб/с

Аудіо # 1:
мова: українська
переклад: професійний дубльований | студія LeDoyen
кодек: 2.0 (стерео)
бітрейт: 192 кб/с
Інформація про дубляж
Переклад: Роман Кисельов
Режисер дубляжу: Анна Пащенко
Музичний керівник: Тетяна Піроженко
Звукорежисер: Альона Шиманович
Звукорежисер перезапису: Олег Кульчицький
Координатор проекту: Аліна Гаєвська
Ролі дублювали: Юрій Горбунов, Анна Добриднєва, Євген Галич, Дмитро Монатик, Олександр Ярема, Маргарита Мелешко, Інна Бєлікова, Михайло Войчук, Артем Мартинішин, Василь Мазур, Ольга Радчук та інші.

Дубльовано та зміксовано студією LeDoyen на замовлення компанії B&H Film Distribution.
Аудіо # 2:
мова: англійська
переклад: оригінал
кодек: TrueHD 7.1
бітрейт: 4888 кб/с

Субтитри # 1-2:
мова: англійська (повні, SDH)
тип: програмні (м'які)
формат: *.srt

Збережено оригінальні розділи, як на Blu-ray
Info
Код:
Complete name               : Sing (2016) [Ukr,Eng sub.Eng] Remux 1080p [Hurtom].
Format                      :
Format version              : Version 4 / Version 2
File size                   : 27.1 GiB
Duration                    : 1 h 47 min
Overall bit rate mode       : Variable
Overall bit rate            : 36.0 Mb/s
Movie name                  : Співай / Sing (2016) [Ukr,Eng sub.Eng] Remux 1080p [Hurtom]
Released date               : 2016
Writing library             : libebml v1.3.4 + libmatroska v1.4.5
Cover                       : Yes
Comment                     : http://www.imdb.com/title/tt3470600/
Attachments                 : cover.jpg
ARTIST                      : Метью МакКонаґі / Matthew McConaughey, Різ Візерспун / Reese Witherspoon, Сет МакФарлейн / Seth MacFarlane, Скарлет Йогансен / Scarlett Johansson, Джон Сі Рейллі / John C. Reilly, Тарон Еджертон / Taron Egerton, Торі Келлі / Tori Kelly, Дженніфер Сондерс / Jennifer Saunders, Нік Кролл / Nick Kroll, Гарт Дженнінгс / Garth Jennings та інші
DIRECTOR                    : Гарт Дженнінгс / Garth Jennings
GENRE                       : анімація, комедія, мюзикл
SYNOPSIS                    : Творці "Посіпак" оголошують старт небаченої досі пісенної битви талантів! Директор колись успішного театру коала Бастер хоче повернути своєму закладу славу і визнання. Він твердо налаштований організувати найграндіозніше у світі шоу. На прослуховування запрошено усіх! І навіть якщо ти сором'язливе слоненя-підліток, рішуча крихітна миша, заклопотана мама-свинка, крутий горила-гангстер чи дикобразиха-рокерка – не вагайся, приходь і співай на повні груди, порви усіх улюбленими хітами. Це твій шанс!
Url                         : https://toloka.to/t81621

Video
ID                          : 1
Format                      : AVC
Format/Info                 : Advanced Video Codec
Format profile              : [email protected]
Format settings, CABAC      : Yes
Format settings, ReFrames   : 4 frames
Codec ID                    : V_MPEG4/ISO/AVC
Duration                    : 1 h 47 min
Bit rate mode               : Variable
Bit rate                    : 30.9 Mb/s
Maximum bit rate            : 35.0 Mb/s
Width                       : 1 920 pixels
Height                      : 1 080 pixels
Display aspect ratio        : 16:9
Frame rate mode             : Constant
Frame rate                  : 23.976 (24000/1001) FPS
Color space                 : YUV
Chroma subsampling          : 4:2:0
Bit depth                   : 8 bits
Scan type                   : Progressive
Bits/(Pixel*Frame)          : 0.621
Stream size                 : 23.3 GiB (86%)
Title                       : Співай / Sing (2016) Remux 1080p
Language                    : English
Default                     : Yes
Forced                      : No

Audio #1
ID                          : 2
Format                      : AC-3
Format/Info                 : Audio Coding 3
Format settings, Endianness : Big
Codec ID                    : A_AC3
Duration                    : 1 h 47 min
Bit rate mode               : Constant
Bit rate                    : 192 kb/s
Channel(s)                  : 2 channels
Channel positions           : Front: L R
Sampling rate               : 48.0 kHz
Frame rate                  : 31.250 FPS (1536 spf)
Bit depth                   : 16 bits
Compression mode            : Lossy
Stream size                 : 148 MiB (1%)
Title                       : Dub [LeDoyen, iTunes] 2.0 192 Kbps [Hurtom-ЙОЖЕГ]
Language                    : Ukrainian
Service kind                : Complete Main
Default                     : Yes
Forced                      : Yes

Audio #2
ID                          : 3
Format                      : TrueHD
Format profile              : TrueHD+Atmos / TrueHD
Codec ID                    : A_TRUEHD
Duration                    : 1 h 47 min
Bit rate mode               : Variable
Bit rate                    : 4 888 kb/s
Maximum bit rate            : 8 139 kb/s
Channel(s)                  : Object Based / 8 channels
Channel positions           : Object Based / Front: L C R, Side: L R, Back: L R, LFE
Sampling rate               :  / 48.0 kHz
Frame rate                  : 1 200.000 FPS (40 spf)
Compression mode            : Lossless
Stream size                 : 3.68 GiB (14%)
Title                       : Original, TrueHD 7.1 4888 Kbps
Language                    : English
Default                     : No
Forced                      : No

Text #1
ID                          : 4
Format                      : UTF-8
Codec ID                    : S_TEXT/UTF8
Codec ID/Info               : UTF-8 Plain Text
Duration                    : 1 h 38 min
Bit rate                    : 57 b/s
Count of elements           : 1410
Stream size                 : 41.2 KiB (0%)
Title                       : Eng Full
Language                    : English
Default                     : No
Forced                      : No

Text #2
ID                          : 5
Format                      : UTF-8
Codec ID                    : S_TEXT/UTF8
Codec ID/Info               : UTF-8 Plain Text
Duration                    : 1 h 39 min
Bit rate                    : 69 b/s
Count of elements           : 1733
Stream size                 : 50.6 KiB (0%)
Title                       : Eng SDH
Language                    : English
Default                     : No
Forced                      : No

Menu
00:00:00.000                : en:00:00:00.000
00:04:29.352                : en:00:04:29.352
00:10:36.469                : en:00:10:36.469
00:14:04.677                : en:00:14:04.677
00:18:32.653                : en:00:18:32.653
00:25:14.722                : en:00:25:14.722
00:30:04.052                : en:00:30:04.052
00:35:11.776                : en:00:35:11.776
00:40:07.405                : en:00:40:07.405
00:44:36.132                : en:00:44:36.132
00:50:26.649                : en:00:50:26.649
00:55:36.208                : en:00:55:36.208
01:04:40.710                : en:01:04:40.710
01:14:03.981                : en:01:14:03.981
01:19:17.962                : en:01:19:17.962
01:23:59.159                : en:01:23:59.159
01:26:56.461                : en:01:26:56.461
01:30:38.266                : en:01:30:38.266
01:34:47.181                : en:01:34:47.181
01:40:16.010                : en:01:40:16.010


Джерело: &
Подяка ЙОЖЕГ'у за українську доріжку


Золотий реліз (завантажене не впливає на рейтинг)
 Трекер:    Зареєстрований   

Завантажити / скачати мультфільм українською



відео для новачків



 Зареєстрований:   2017-04-29 07:09
 Розмір:   27.14 GB 
 Оцінка мультфільму:   7.5/10 (Голосів: 39)
   
Інші релізи
   Співай / Sing (2016) AVC Patriot_ukr  243 / 4   1.59 GB   2017-04-29 10:55 
   Співай / Sing (2016) 1080p 3D [Half OverUnder] Ukr/Eng | Sub Eng igor911  17 / 0   11.9 GB   2017-04-28 23:53 
   Співай / Sing (2016) 720p Ukr/Eng | Sub Eng igor911  138 / 4   4.7 GB   2017-04-28 23:22 
   Співай / Sing (2016) Electroz  212 / 0   1.27 GB   2017-04-28 22:52 
   Співай / Sing (2016) 1080p Ukr/Eng | Sub Eng Electroz  54 / 0   11.1 GB   2017-04-28 22:26 
   Сусіди 2 / Neighbors 2: Sorority Rising (2016) AVC Patriot_ukr  7 / 0   1.73 GB   2017-03-20 23:49 
   Сусіди 2 / Neighbors 2: Sorority Rising (2016) 720p Ukr/Eng | Sub Eng 11FrYkT  5 / 0   5.25 GB   2016-08-24 19:19 
   Сусіди 2 / Neighbors 2: Sorority Rising (2016) Covenant  13 / 0   1.45 GB   2016-08-24 18:29 
   Сусіди 2 / Neighbors 2: Sorority Rising (2016) 1080p Ukr/Eng corega  2 / 0   6.68 GB   2016-08-22 20:27 
Uberwinder 
Свій


З нами з: 18.11.16
Востаннє: 18.08.17
Повідомлень: 110

2017-04-29 06:55  
Дякую, чекаємо!
IRONHIDE 
Свій


З нами з: 06.08.10
Востаннє: 18.08.17
Повідомлень: 145

2017-04-29 06:57  
Чудово
ukrnet 
Частий відвідувач


З нами з: 03.01.14
Востаннє: 17.08.17
Повідомлень: 32

2017-04-29 18:47  
Ура
YaTL 
Новенький


З нами з: 26.04.17
Востаннє: 26.05.17
Повідомлень: 1

2017-04-29 20:48  
Дякую!
rozdobko 
Новенький


З нами з: 14.03.10
Востаннє: 18.08.17
Повідомлень: 3

2017-04-29 22:23  
Супер мультфільм. Тількищо переглянув. Оцінка 10 з 10. Діти в захваті.
vitexdp 
Частий відвідувач


З нами з: 09.07.14
Востаннє: 18.08.17
Повідомлень: 34

2017-04-30 15:10  
Жахливо...
японкам так й не дали виступити Sad (1) так чекав!
ще й сусідам по "панелькі" наче довелося прослухати усі пісьні з мульта Happy https://www.youtube.com/watch?v=sBYrtRyn0H0

demetrius52 
Частий відвідувач


З нами з: 02.04.17
Востаннє: 05.08.17
Повідомлень: 49

2017-05-02 01:38  
Anonymous
в кінці мультфільму, коли йдуть титри, говорять хто дублював ролі. можете додати, якщо хочете

zdlr 
Частий відвідувач


З нами з: 07.12.12
Востаннє: 18.08.17
Повідомлень: 28

2017-05-03 18:47  
Шедевральний мультик. Діти дивляться вже десятий раз.
Uberwinder 
Свій


З нами з: 18.11.16
Востаннє: 18.08.17
Повідомлень: 110

2017-08-03 07:09  
Дуже приємний мультфільм, дякую ще раз!
Ваш часовий пояс: GMT + 2 Години

Нова тема   Відповісти