Співай / Sing (2016) Remux 1080p Ukr/Eng | Sub Eng

Нові коментарі

Нова тема   Відповісти
Автор Повідомлення
Anonymous 







2017-04-29 00:47  
Співай / Sing (2016) Remux 1080p Ukr/Eng | Sub Eng

Усі українські постери


















Жанр: анімація, комедія, мюзикл
Країна: США



Кінокомпанія: Universal Pictures, Illumination Entertainment
Режисер: Гарт Дженнінгс / Garth Jennings
Актори: Метью МакКонаґі / Matthew McConaughey, Різ Візерспун / Reese Witherspoon, Сет МакФарлейн / Seth MacFarlane, Скарлет Йогансен / Scarlett Johansson, Джон Сі Рейллі / John C. Reilly, Тарон Еджертон / Taron Egerton, Торі Келлі / Tori Kelly, Дженніфер Сондерс / Jennifer Saunders, Нік Кролл / Nick Kroll, Гарт Дженнінгс / Garth Jennings та інші

Сюжет:
Творці "Посіпак" оголошують старт небаченої досі пісенної битви талантів! Директор колись успішного театру коала Бастер хоче повернути своєму закладу славу і визнання. Він твердо налаштований організувати найграндіозніше у світі шоу. На прослуховування запрошено усіх! І навіть якщо ти сором'язливе слоненя-підліток, рішуча крихітна миша, заклопотана мама-свинка, крутий горила-гангстер чи дикобразиха-рокерка – не вагайся, приходь і співай на повні груди, порви усіх улюбленими хітами. Це твій шанс!
Офіційні українські трейлери:





Рейтинг MPAA: PG - рекомендується присутність батьків
Вікова категорія: 6+
Тривалість: 01:47:53
Якість: Remux 1080p
Відео:
кодек:
розмір кадру: 1920 х 1080
бітрейт: 30,9 Мб/с

Аудіо # 1:
мова: українська
переклад: професійний дубльований | студія LeDoyen
кодек: -HD MA 5.1
бітрейт: 3779 кб/с

Аудіо # 2:
мова: українська
переклад: професійний дубльований | студія LeDoyen
кодек: 5.1
бітрейт: 1509 кб/с

Аудіо # 3:
мова: українська
переклад: професійний дубльований | студія LeDoyen
кодек: 5.1
бітрейт: 640 кб/с

Аудіо # 4:
мова: українська
переклад: професійний дубльований | студія LeDoyen
кодек: 2.0 (стерео)
бітрейт: 192 кб/с
Інформація про дубляж
Переклад: Роман Кисельов
Режисер дубляжу: Анна Пащенко
Музичний керівник: Тетяна Піроженко
Звукорежисер: Альона Шиманович
Звукорежисер перезапису: Олег Кульчицький
Координатор проекту: Аліна Гаєвська
Ролі дублювали: Юрій Горбунов, Анна Добриднєва, Євген Галич, Дмитро Монатик, Олександр Ярема, Маргарита Мелешко, Інна Бєлікова, Михайло Войчук, Артем Мартинішин, Василь Мазур, Ольга Радчук та інші.

Дубльовано та зміксовано студією LeDoyen на замовлення компанії B&H Film Distribution.
Аудіо # 5:
мова: англійська
переклад: оригінал
кодек: TrueHD+Atmos 7.1
бітрейт: 4888 кб/с

Субтитри # 1:
мова: українська (forced)
тип: програмні (м'які)
формат: *.srt

Субтитри # 2-3:
мова: англійська (повні, SDH)
тип: програмні (м'які)
формат: *.srt

Збережено оригінальні розділи, як на Blu-ray
Info
Код:

Complete name               : Sing (2016) [Ukr,Eng sub.Eng] Remux 1080p [Hurtom].
Format                      :
Format version              : Version 4
File size                   : 31.6 GiB
Duration                    : 1 h 47 min
Overall bit rate mode       : Variable
Overall bit rate            : 41.9 Mb/s
Movie name                  : Співай / Sing (2016) [Ukr,Eng sub.Eng] Remux 1080p [Hurtom]
Released date               : 2016
Encoded date                : UTC 2019-09-28 07:01:21
Writing application         : v37.0.0 ('Leave It') 64-bit
Writing library             : libebml v1.3.9 + v1.5.2
Cover                       : Yes
Comment                     : http://www.imdb.com/title/tt3470600/
Attachments                 : cover.jpg
ARTIST                      : Метью МакКонаґі / Matthew McConaughey, Різ Візерспун / Reese Witherspoon, Сет МакФарлейн / Seth MacFarlane, Скарлет Йогансен / Scarlett Johansson, Джон Сі Рейллі / John C. Reilly, Тарон Еджертон / Taron Egerton, Торі Келлі / Tori Kelly, Дженніфер Сондерс / Jennifer Saunders, Нік Кролл / Nick Kroll, Гарт Дженнінгс / Garth Jennings та інші
DIRECTOR                    : Гарт Дженнінгс / Garth Jennings
GENRE                       : анімація, комедія, мюзикл
SYNOPSIS                    : Творці "Посіпак" оголошують старт небаченої досі пісенної битви талантів! Директор колись успішного театру коала Бастер хоче повернути своєму закладу славу і визнання. Він твердо налаштований організувати найграндіозніше у світі шоу. На прослуховування запрошено усіх! І навіть якщо ти сором'язливе слоненя-підліток, рішуча крихітна миша, заклопотана мама-свинка, крутий горила-гангстер чи дикобразиха-рокерка – не вагайся, приходь і співай на повні груди, порви усіх улюбленими хітами. Це твій шанс!
Url                         : https://toloka.to/t81621

Video
ID                          : 1
Format                      : AVC
Format/Info                 : Advanced Video Codec
Format profile              : [email protected]
Format settings             : CABAC / 4 Ref Frames
Format settings, CABAC      : Yes
Format settings, Reference  : 4 frames
Codec ID                    : V_MPEG4/ISO/AVC
Duration                    : 1 h 47 min
Bit rate mode               : Variable
Bit rate                    : 30.9 Mb/s
Maximum bit rate            : 35.0 Mb/s
Width                       : 1 920 pixels
Height                      : 1 080 pixels
Display aspect ratio        : 16:9
Frame rate mode             : Constant
Frame rate                  : 23.976 (24000/1001) FPS
Color space                 : YUV
Chroma subsampling          : 4:2:0
Bit depth                   : 8 bits
Scan type                   : Progressive
Bits/(Pixel*Frame)          : 0.621
Stream size                 : 23.3 GiB (74%)
Title                       : Співай / Sing (2016) Remux 1080p
Language                    : English
Default                     : Yes
Forced                      : No

Audio #1
ID                          : 2
Format                      : XLL
Format/Info                 : Digital Theater Systems
Commercial name             : -HD Master Audio
Codec ID                    : A_DTS
Duration                    : 1 h 47 min
Bit rate mode               : Variable
Bit rate                    : 3 779 kb/s
Channel(s)                  : 6 channels
Channel layout              : C L R Ls Rs LFE
Sampling rate               : 48.0 kHz
Frame rate                  : 93.750 FPS (512 SPF)
Bit depth                   : 24 bits
Compression mode            : Lossless
Stream size                 : 2.85 GiB (9%)
Title                       : Dub [LeDoyen, Hurtom], -HD MA 5.1 3779 Kbps
Language                    : Ukrainian
Default                     : Yes
Forced                      : No

Audio #2
ID                          : 3
Format                      :
Format/Info                 : Digital Theater Systems
Codec ID                    : A_DTS
Duration                    : 1 h 47 min
Bit rate mode               : Constant
Bit rate                    : 1 509 kb/s
Channel(s)                  : 6 channels
Channel layout              : C L R Ls Rs LFE
Sampling rate               : 48.0 kHz
Frame rate                  : 93.750 FPS (512 SPF)
Bit depth                   : 24 bits
Compression mode            : Lossy
Stream size                 : 1.14 GiB (4%)
Title                       : Dub [LeDoyen, Hurtom], 5.1 1509 Kbps
Language                    : Ukrainian
Default                     : No
Forced                      : No

Audio #3
ID                          : 4
Format                      : AC-3
Format/Info                 : Audio Coding 3
Commercial name             : Dolby Digital
Codec ID                    : A_AC3
Duration                    : 1 h 47 min
Bit rate mode               : Constant
Bit rate                    : 640 kb/s
Channel(s)                  : 6 channels
Channel layout              : L R C LFE Ls Rs
Sampling rate               : 48.0 kHz
Frame rate                  : 31.250 FPS (1536 SPF)
Compression mode            : Lossy
Stream size                 : 494 MiB (2%)
Title                       : Dub [LeDoyen, Hurtom], 5.1 640 Kbps
Language                    : Ukrainian
Service kind                : Complete Main
Default                     : No
Forced                      : No

Audio #4
ID                          : 5
Format                      : AC-3
Format/Info                 : Audio Coding 3
Commercial name             : Dolby Digital
Codec ID                    : A_AC3
Duration                    : 1 h 47 min
Bit rate mode               : Constant
Bit rate                    : 192 kb/s
Channel(s)                  : 2 channels
Channel layout              : L R
Sampling rate               : 48.0 kHz
Frame rate                  : 31.250 FPS (1536 SPF)
Compression mode            : Lossy
Stream size                 : 148 MiB (0%)
Title                       : Dub [LeDoyen, iTunes] 2.0 [stereo] 192 Kbps [Hurtom-ЙОЖЕГ]
Language                    : Ukrainian
Service kind                : Complete Main
Default                     : No
Forced                      : No

Audio #5
ID                          : 6
Format                      : MLP FBA 16-ch
Format/Info                 : Meridian Lossless Packing FBA with 16-channel presentation
Commercial name             : Dolby TrueHD with Dolby Atmos
Codec ID                    : A_TRUEHD
Duration                    : 1 h 47 min
Bit rate mode               : Variable
Bit rate                    : 4 888 kb/s
Maximum bit rate            : 8 139 kb/s
Channel(s)                  : 8 channels
Channel layout              : L R C LFE Ls Rs Lb Rb
Sampling rate               : 48.0 kHz
Frame rate                  : 1 200.000 FPS (40 SPF)
Compression mode            : Lossless
Stream size                 : 3.68 GiB (12%)
Title                       : Original, TrueHD 7.1 4888 Kbps
Language                    : English
Default                     : No
Forced                      : No
Number of dynamic objects   : 11
Bed channel count           : 1 channel
Bed channel configuration   : LFE

Text #1
ID                          : 7
Format                      : UTF-8
Codec ID                    : S_TEXT/UTF8
Codec ID/Info               : UTF-8 Plain Text
Duration                    : 1 h 35 min
Bit rate                    : 1 b/s
Count of elements           : 30
Stream size                 : 1.12 KiB (0%)
Title                       : Ukr Forced
Language                    : Ukrainian
Default                     : Yes
Forced                      : Yes

Text #2
ID                          : 8
Format                      : UTF-8
Codec ID                    : S_TEXT/UTF8
Codec ID/Info               : UTF-8 Plain Text
Duration                    : 1 h 38 min
Bit rate                    : 57 b/s
Count of elements           : 1410
Stream size                 : 41.2 KiB (0%)
Title                       : Eng Full
Language                    : English
Default                     : No
Forced                      : No

Text #3
ID                          : 9
Format                      : UTF-8
Codec ID                    : S_TEXT/UTF8
Codec ID/Info               : UTF-8 Plain Text
Duration                    : 1 h 39 min
Bit rate                    : 69 b/s
Count of elements           : 1733
Stream size                 : 50.6 KiB (0%)
Title                       : Eng SDH
Language                    : English
Default                     : No
Forced                      : No

Menu
00:00:00.000                : en:00:00:00.000
00:04:29.352                : en:00:04:29.352
00:10:36.469                : en:00:10:36.469
00:14:04.677                : en:00:14:04.677
00:18:32.653                : en:00:18:32.653
00:25:14.722                : en:00:25:14.722
00:30:04.052                : en:00:30:04.052
00:35:11.776                : en:00:35:11.776
00:40:07.405                : en:00:40:07.405
00:44:36.132                : en:00:44:36.132
00:50:26.649                : en:00:50:26.649
00:55:36.208                : en:00:55:36.208
01:04:40.710                : en:01:04:40.710
01:14:03.981                : en:01:14:03.981
01:19:17.962                : en:01:19:17.962
01:23:59.159                : en:01:23:59.159
01:26:56.461                : en:01:26:56.461
01:30:38.266                : en:01:30:38.266
01:34:47.181                : en:01:34:47.181
01:40:16.010                : en:01:40:16.010


Джерело: &
Подяки: Hanway'ю за синхронізацію 5.1 доріжок, ЙОЖЕГ'у за доріжку з , Electroz'у та Ash61 за субтитри.

28.09.2019 реліз оновлено - додано український звук 5.1 та субтитри на неозвучені написи


Золотий реліз (завантажене не впливає на рейтинг)
 Трекер:    Зареєстрований   

Завантажити / скачати мультфільм українською



відео для новачків



 Зареєстрований:   2019-09-28 10:20
 Розмір:   31.61 GB 
 Оцінка мультфільму:   8.1/10 (Голосів: 50)
 ЗАЛИШАЙТЕСЬ ЯКОМОГА ДОВШЕ НА РОЗДАЧІ! ЗАВАНТАЖИВ САМ - ДАЙ ЗАВАНТАЖИТИ ІНШИМ!
   
Інші релізи
   Співай / Sing (2016) Ukr/Eng antik_2008  11 / 0   2 GB   2019-09-28 20:29 
   Співай / Sing (2016) 720p Ukr/Eng | Sub Eng igor911  4 / 0   6.32 GB   2019-09-28 11:06 
   Співай / Sing (2016) 1080p 3D [Half OverUnder] Ukr/Eng | Sub Eng igor911  2 / 1   13.52 GB   2019-09-28 11:05 
   Співай / Sing (2016) AVC Ukr/Eng | Sub Eng Patriot_ukr  5 / 0   2.12 GB   2019-09-27 19:06 
   Співай / Sing (2016) Electroz  18 / 0   1.27 GB   2017-04-28 22:52 
   Співай / Sing (2016) 1080p Ukr/Eng | Sub Eng Electroz  14 / 0   11.1 GB   2017-04-28 22:26 
   Сусіди 2 / Neighbors 2: Sorority Rising (2016) AVC Patriot_ukr  0 / 0   1.73 GB   2017-03-20 23:49 
   Сусіди 2 / Neighbors 2: Sorority Rising (2016) 720p Ukr/Eng | Sub Eng 11FrYkT  0 / 0   5.25 GB   2016-08-24 19:19 
   Сусіди 2 / Neighbors 2: Sorority Rising (2016) Covenant  3 / 0   1.45 GB   2016-08-24 18:29 
   Сусіди 2 / Neighbors 2: Sorority Rising (2016) 1080p Ukr/Eng corega  1 / 0   6.68 GB   2016-08-22 20:27 
Uberwinder 
VIP


З нами з: 18.11.16
Востаннє: 21.10.19
Повідомлень: 276

2017-04-29 06:55  
Дякую, чекаємо!
IRONHIDE 
Поважний учасник


З нами з: 06.08.10
Востаннє: 20.10.19
Повідомлень: 183

2017-04-29 06:57  
Чудово
ukrnet 
Свій


З нами з: 03.01.14
Востаннє: 20.10.19
Повідомлень: 67

2017-04-29 18:47  
Ура
YaTL 
Новенький


З нами з: 26.04.17
Востаннє: 26.05.17
Повідомлень: 1

2017-04-29 20:48  
Дякую!
rozdobko 
Новенький


З нами з: 14.03.10
Востаннє: 19.10.19
Повідомлень: 5

2017-04-29 22:23  
Супер мультфільм. Тількищо переглянув. Оцінка 10 з 10. Діти в захваті.
vitexdp 
Частий відвідувач


З нами з: 09.07.14
Востаннє: 20.10.19
Повідомлень: 34

2017-04-30 15:10  
Жахливо...
японкам так й не дали виступити Sad (1) так чекав!
ще й сусідам по "панелькі" наче довелося прослухати усі пісьні з мульта Happy https://www.youtube.com/watch?v=sBYrtRyn0H0

demetrius52 
VIP


З нами з: 02.04.17
Востаннє: 19.09.19
Повідомлень: 264

2017-05-02 01:38  
Anonymous
в кінці мультфільму, коли йдуть титри, говорять хто дублював ролі. можете додати, якщо хочете

zdlr 
Свій


З нами з: 07.12.12
Востаннє: 15.10.19
Повідомлень: 58

2017-05-03 18:47  
Шедевральний мультик. Діти дивляться вже десятий раз.
Uberwinder 
VIP


З нами з: 18.11.16
Востаннє: 21.10.19
Повідомлень: 276

2017-08-03 07:09  
Дуже приємний мультфільм, дякую ще раз!
Maters 
Відео Гуртом - підтримка та поширення
Відео Гуртом - підтримка та поширення


З нами з: 27.03.12
Востаннє: 20.10.19
Повідомлень: 1756

2017-12-22 00:37  
Підтримую позитивні відгуки. Мультфільм реально крутий))
Anonymous 







2019-09-28 10:21  
Реліз оновлено - додано український якісний 5.1 звук та субтитри на неозвучені написи
Ваш часовий пояс: GMT + 2 Години

Нова тема   Відповісти