Оселя зла: Фінальна битва / Resident Evil: The Final Chapter (2016) Ukr/Eng | Sub Ukr/Eng

Нові коментарі

Нова тема   Відповісти
Автор Повідомлення
Anonymous 







2017-04-28 16:35  
Оселя зла: Фінальна битва / Resident Evil: The Final Chapter (2016) Ukr/Eng | Sub Ukr/Eng



Жанр: трилер, фантастика, жахи, бойовик
Країна: Німеччина, Австралія, Канада, Франція



Кінокомпанія: Capcom Entertainment, Impact Pictures, Screen Gems
Режисер: Пол В. С. Андерсон / Paul W.S. Anderson
Актори: Мілла Йовович / Milla Jovovich, Рубі Роуз / Ruby Rose, Елі Лартер / Ali Larter, Ієн Глен / Iain Glen, Вільям Леві / William Levy, Шон Робертс / Shawn Roberts, Рола / Rola, Оуен Мекен / Eoin Macken та інші

Сюжет:
Еліс продовжує свою боротьбу з ворожою системою корпорації з допомогою своїх друзів: Джилл Валентайн, Ада Вонг, Леон Скотт Кеннеді і Беккі, продовжуючи непростий союз з колишнім головою — Альбертом Вескером. По дорозі вони возз'єднаються з колишніми захопленими товаришами: Крісом, Клер і Кей-Март. Їх епічна битва приведе їх туди, де все й почалося, в темний особняк, побудований засновником Оузвелом Спенсером.


Тривалість: 01:46:40
Якість:
Відео:
кодек:
розмір кадру: 720 х 304
бітрейт: 1961 кб/с

Аудіо # 1:
мова: українська
переклад: професійний дубльований | студія LeDoyen
кодек: 2.0 [стерео]
бітрейт: 192 кб/с
Інформація про дубляж
Переклад: Надія Бойван
Режисер дубляжу: Ольга Фокіна
Звукорежисер: Віктор Алфьоров
Звукорежисер перезапису: Олег Кульчицький
Координатор проекту: Анна Харківська
Ролі дублювали: Катерина Сергєєва, Олег Стальчук, Володимир Паляниця, Галина Дубок, Катерина Качан та інші.

Фільм надано компанією Columbia Pictures, дубльовано та зміксовано студією LeDoyen на замовлення компанії B&H Film Distribution.
Аудіо # 2:
мова: англійська
переклад: оригінал
кодек: 5.1
бітрейт: 448 кб/с

Субтитри # 1-2:
мова: українська (форсовані, повні)
тип: програмні (м'які)
формат: *.srt

Субтитри # 3:
мова: англійська
тип: програмні (м'які)
формат: *.srt
Info
Код:
General
Complete name               : Resident Evil - The Final Chapter (2016) [Ukr,Eng] [Hurtom].avi
Format                      : AVI
Format/Info                 : Audio Video Interleave
File size                   : 1.95 GiB
Duration                    : 1 h 46 min
Overall bit rate            : 2 615 kb/s
Movie name                  : Оселя зла: Фінальна битва / Resident Evil: The Final Chapter (2016) Ukr/Eng | Sub Ukr/Eng [Hurtom]
Genre                       : трилер, фантастика, жахи, бойовик
Writing application         : VirtualDubModUkr 1.5.10.2 (build 2542/release)
Writing library             : VirtualDubMod build 2542/release
Comment                     : https://toloka.to/t81611

Video
ID                          : 0
Format                      : MPEG-4 Visual
Format profile              : Advanced [email protected]
Format settings, BVOP       : 1
Format settings, QPel       : No
Format settings, GMC        : No warppoints
Format settings, Matrix     : Custom
Codec ID                    :
Codec ID/Hint               :
Duration                    : 1 h 46 min
Bit rate                    : 1 961 kb/s
Width                       : 720 pixels
Height                      : 304 pixels
Display aspect ratio        : 2.35:1
Frame rate                  : 23.976 (24000/1001) FPS
Color space                 : YUV
Chroma subsampling          : 4:2:0
Bit depth                   : 8 bits
Scan type                   : Progressive
Compression mode            : Lossy
Bits/(Pixel*Frame)          : 0.374
Stream size                 : 1.46 GiB (75%)
Writing library             : 65

Audio #1
ID                          : 1
Format                      : AC-3
Format/Info                 : Audio Coding 3
Format settings, Endianness : Big
Codec ID                    : 2000
Duration                    : 1 h 46 min
Bit rate mode               : Constant
Bit rate                    : 192 kb/s
Channel(s)                  : 2 channels
Channel positions           : Front: L R
Sampling rate               : 48.0 kHz
Frame rate                  : 31.250 FPS (1536 spf)
Bit depth                   : 16 bits
Compression mode            : Lossy
Stream size                 : 146 MiB (7%)
Alignment                   : Split accross interleaves
Interleave, duration        : 42  ms (1.00 video frame)
Interleave, preload duratio : 500  ms
Title                       : Ukr Dub [LeDoyen, iTunes] by Ash61 (fixed)
Service kind                : Complete Main

Audio #2
ID                          : 2
Format                      : AC-3
Format/Info                 : Audio Coding 3
Format settings, Endianness : Big
Codec ID                    : 2000
Duration                    : 1 h 46 min
Bit rate mode               : Constant
Bit rate                    : 448 kb/s
Channel(s)                  : 6 channels
Channel positions           : Front: L C R, Side: L R, LFE
Sampling rate               : 48.0 kHz
Frame rate                  : 31.250 FPS (1536 spf)
Bit depth                   : 16 bits
Compression mode            : Lossy
Stream size                 : 342 MiB (17%)
Alignment                   : Split accross interleaves
Interleave, duration        : 42  ms (1.00 video frame)
Interleave, preload duratio : 500  ms
Service kind                : Complete Main


Джерело: &
Подяка за українську доріжку та субтитри Ash61
29.04.2017 реліз оновлено!
В українській доріжці було усунуто невеликий розсинхрон на проміжку 00:40:56 по 00:41:51, замінено відеоряд на якісніший.
Вибачте за незручності, перевантажте, будь ласка, торрент.



 Трекер:    Зареєстрований   

Завантажити / скачати фільм українською



відео для новачків



 Зареєстрований:   2017-04-29 21:01
 Розмір:   1.95 GB 
 Оцінка фільму:   7.3/10 (Голосів: 72)
   
numealand 
Частий відвідувач


З нами з: 19.01.17
Востаннє: 19.09.17
Повідомлень: 32

2017-04-28 18:59  
фільм доволі непоганий
ukrnet 
Частий відвідувач


З нами з: 03.01.14
Востаннє: 17.09.17
Повідомлень: 34

2017-04-29 18:48  
Фу фу фу більше не буду дивитись ужастікі про зомбаків всьо я пас жити хочеться (
Ash61 
Новенький


З нами з: 21.08.16
Востаннє: 18.09.17
Повідомлень: 11

2017-04-29 19:23  
Помічений рассінхрон з 00:40:56 по 00:41:51.
Прошу вибачення за незручності!
Виправлений варіант - https://cloud.mail.ru/public/7z7Y/VzovMGzHj

Anonymous 







2017-04-29 21:04  

29.04.2017 реліз оновлено!
В українській доріжці було усунуто невеликий розсинхрон на проміжку 00:40:56 - 00:41:51 та замінено відеоряд на якісніший.
Вибачте за незручності, перевантажте, будь ласка, торрент.


Blisscounter 
Поважний учасник


З нами з: 20.04.12
Востаннє: 17.09.17
Повідомлень: 158

2017-04-30 22:11  
Фекальна битва.. власне інших асоціацій не викликає як даний фільм, так і загалом уся ця псевдо кіноепопея імені сімейства Йововичів
shanjin 
VIP


З нами з: 17.04.13
Востаннє: 16.09.17
Повідомлень: 460

2017-05-01 12:26  
Хоч мені і дуже подобаються серії "Оселя зла", "Радіоактивні опади" та непогана серія "Чьотири,що вижили...Але з кожною частиною цього альтернативного варіанту Оселі зла все більше і більше виникає дилема:пишатись чи ще більше обурюватись...Таке відчуття,що дана серія фільмів тримається лише на міцних сімейних ланцюгах чи кайданахHappy,бо навіть усі ці аналогії з використанням успішних елементів різних якісних творінь включно з деякими елементами Оселі Зла Одкровення 2 нерятують загалну картину...

P.S.Після десь трьох серій постає велике питання до капкомівців про те куди вони дивляця та щира подяка локалізаторам чи людям,що озвучили за тещо дали можливість осилити все що відбувалося на екрані...

Ятаган-1 
Свій


З нами з: 02.04.15
Востаннє: 31.08.17
Повідомлень: 50

2017-05-02 23:15  
Найгрший фільм з серії 2/10 у мене все. А жаль.
paintergood 
Частий відвідувач


З нами з: 19.12.16
Востаннє: 19.09.17
Повідомлень: 26

2017-05-03 16:33  
фууу це велике Гамніцо 1\10
KotSilver 
Новенький


З нами з: 25.09.14
Востаннє: 19.08.17
Повідомлень: 4

2017-05-04 13:02  
Люблю зомбі, навіть мутантів зомбі, але ненавиджу клонів. Усі фільми про клонів - відстій. 3/10
volodymyr_sav 
VIP


З нами з: 07.10.13
Востаннє: 17.09.17
Повідомлень: 1140

2017-05-07 11:30  
З самого початку я думав, буде набагато гірше, бо ота літуча почвара та тупий трюк з мотоциклом не обіцяли нічого хорошого. Однак історію цікаво повернули, з монстрами не перегнули. Захист на тому хмарочосі нагадав хорошу постапокаліптику типу ШаленогоМакса та й справедливий хепіенд заслуговує на окремий бал. Сподобались також оті бронемашини.
Для мене значно гіршими були дві перші частини. Бо усі інші крім них я зберіг у колекцію. А цей фільм сміливо ставлю на друге місце після все ж найкращої для мене ІІІ-ї частини. Я рекомендую подивитись.

Maters 
VIP


З нами з: 27.03.12
Востаннє: 19.09.17
Повідомлень: 1301

2017-05-09 23:14  
Враховуючи те, що я бачив всі попередні серії, то вирішив і цю подивитись. Скажу, що не найгірша. Принаймні краща від двох попередніх, але своє думки все таки дотримуюсь - треба вже прикрити зйомки фільмів Оселі зла, адже воно вже давно не те ((
Ваш часовий пояс: GMT + 2 Години

Нова тема   Відповісти