Балто / Balto (1995) 720p Ukr/Eng | Sub Eng

Нові коментарі

Нова тема   Відповісти
Автор Повідомлення
Anonymous 







2017-04-28 12:25  
Балто / Balto (1995) 720p Ukr/Eng | Sub Eng

Альтернативний постер


Жанр: анімація, драма, пригодницький, сімейний, історичний
Країна: США



Кінокомпанія: Amblimation, Amblin Entertainment, Universal Pictures
Продюсер: Стівен Спілберг / Steven Spielberg
Режисер: Саймон Веллс / Simon Wells
Актори: Кевін Бейкон / Kevin Bacon, Боб Хоскінс / Bob Hoskins, Бріджет Фонда / Bridget Fonda, Джим Камінгс / Jim Cummings, Філ Коллінз / Phil Collins, Джек Енджел / Jack Angel, Денні Манн / Danny Mann та інші

Сюжет:
Наполовину лайка, наполовину вовк, Балто й сам не знає ким він є насправді . Усіма гнаний бурлака в крижаній пустелі Аляски. Тільки його друзі російський полярний гусак Борис, ведмежата Мак і Лак і красуня-лайка Дженна впевнені, що хоч Балто і не такий як усі, але в його грудях б'ється шляхетне серце.

Одного разу трапляється нещастя. Епідемія дифтерії охопила дітей невеликого селища, а люта хуртовина зробила непрохідними всі дороги. Лише собача запряжка може подолати шістсот миль через сліпучий арктичний шторм і привезти рятівні ліки.

Але собаки збилися з дороги десь на замерзлих просторах. Тепер тільки Балто може знайти запряжку й урятувати дітей, а разом із тим, стати героєм і справжньою легендою!


Рейтинг MPAA: G - нема вікових обмежень
Вікова категорія: 0+

Тривалість: 01:17:37
Якість: 720p
Відео:
кодек:
розмір кадру: 1280 х 692
бітрейт: 7564 кб/с [crf=17]

Аудіо # 1:
мова: українська
переклад: багатоголосий закадровий | Так Треба Продакшн
кодек: 5.1
бітрейт: 384 кб/с

Аудіо # 2:
мова: англійська
переклад: оригінал
кодек: 5.1
бітрейт: 640 кб/с

Субтитри #1:
мова: англійська (повні+пісні)
тип: програмні (м'які)
формат: srt

Субтитри #2:
мова: англійська (SDH)
тип: пререндерні
формат: pgs

Присутні поіменовані розділи на основі DVD R1
Info
Код:
Complete name               : Balto (1995) [Ukr,Eng sub.Eng] 720p [Hurtom].
Format                      :
Format version              : Version 4 / Version 2
File size                   : 4.67 GiB
Duration                    : 1 h 17 min
Overall bit rate            : 8 604 kb/s
Movie name                  : Балто / Balto (1995) [Ukr,Eng sub.Eng] 720p [Hurtom]
Released date               : 1995
Encoded date                : UTC 2017-04-28 10:47:27
Writing application         : mkvmerge v11.0.0 ('Alive') 64bit
Writing library             : libebml v1.3.4 + libmatroska v1.4.5
Cover                       : Yes
Comment                     : http://www.imdb.com/title/tt0112453/
Attachments                 : cover.jpg
ARTIST                      : Кевін Бейкон / Kevin Bacon, Боб Хоскінс / Bob Hoskins, Бріджет Фонда / Bridget Fonda, Джим Камінгс / Jim Cummings, Філ Коллінз / Phil Collins, Джек Енджел / Jack Angel, Денні Манн / Danny Mann та інші
DIRECTOR                    : Саймон Веллс / Simon Wells
GENRE                       : анімація, драма, пригодницький, сімейний, історичний
SYNOPSIS                    : Наполовину лайка, наполовину вовк, Балто й сам не знає ким він є насправді . Усіма гнаний бурлака в крижаній пустелі Аляски. Тільки його друзі російський полярний гусак Борис, ведмежата Мак і Лак і красуня-лайка Дженна впевнені, що хоч Балто і не такий як усі, але в його грудях б'ється шляхетне серце. /  / Одного разу трапляється нещастя. Епідемія дифтерії охопила дітей невеликого селища, а люта хуртовина зробила непрохідними всі дороги. Лише собача запряжка може подолати шістсот миль через сліпучий арктичний шторм і привезти рятівні ліки. /  / Але собаки збилися з дороги десь на замерзлих просторах. Тепер тільки Балто може знайти запряжку й урятувати дітей, а разом із тим, стати героєм і справжньою легендою!
Url                         : https://toloka.to/t81607

Video
ID                          : 1
Format                      : AVC
Format/Info                 : Advanced Video Codec
Format profile              : [email protected]
Format settings, CABAC      : Yes
Format settings, ReFrames   : 8 frames
Codec ID                    : V_MPEG4/ISO/AVC
Duration                    : 1 h 17 min
Bit rate                    : 7 564 kb/s
Width                       : 1 280 pixels
Height                      : 692 pixels
Display aspect ratio        : 1.85:1
Frame rate mode             : Constant
Frame rate                  : 23.976 (24000/1001) FPS
Color space                 : YUV
Chroma subsampling          : 4:2:0
Bit depth                   : 8 bits
Scan type                   : Progressive
Bits/(Pixel*Frame)          : 0.356
Stream size                 : 4.10 GiB (88%)
Title                       : Балто / Balto (1995) 720p [-=DoMiNo=-]
Writing library             : core 148 r2762M 90a61ec
Encoding settings           : cabac=1 / ref=8 / deblock=1:-3:-3 / analyse=0x3:0x133 / me=umh / subme=11 / psy=1 / psy_rd=1.00:0.10 / mixed_ref=1 / me_range=48 / chroma_me=1 / trellis=2 / 8x8dct=1 / cqm=0 / deadzone=21,11 / fast_pskip=0 / chroma_qp_offset=-3 / threads=6 / lookahead_threads=1 / sliced_threads=0 / nr=0 / decimate=1 / interlaced=0 / bluray_compat=0 / constrained_intra=0 / bframes=9 / b_pyramid=2 / b_adapt=2 / b_bias=0 / direct=3 / weightb=1 / open_gop=0 / weightp=2 / keyint=230 / keyint_min=23 / scenecut=40 / intra_refresh=0 / rc=crf / mbtree=0 / crf=17.0 / qcomp=0.60 / qpmin=0 / qpmax=69 / qpstep=4 / ip_ratio=1.40 / pb_ratio=1.30 / aq=1:1.00
Language                    : English
Default                     : Yes
Forced                      : No

Audio #1
ID                          : 2
Format                      : AC-3
Format/Info                 : Audio Coding 3
Format settings, Endianness : Big
Codec ID                    : A_AC3
Duration                    : 1 h 17 min
Bit rate mode               : Constant
Bit rate                    : 384 kb/s
Channel(s)                  : 6 channels
Channel positions           : Front: L C R, Side: L R, LFE
Sampling rate               : 48.0 kHz
Frame rate                  : 31.250 FPS (1536 spf)
Bit depth                   : 16 bits
Compression mode            : Lossy
Stream size                 : 213 MiB (4%)
Title                       : MVO [ICTV, TTP] 5.1 384 Kbps [Hurtom-rooster;HDClub]
Language                    : Ukrainian
Service kind                : Complete Main
Default                     : Yes
Forced                      : Yes

Audio #2
ID                          : 3
Format                      : AC-3
Format/Info                 : Audio Coding 3
Format settings, Endianness : Big
Codec ID                    : A_AC3
Duration                    : 1 h 17 min
Bit rate mode               : Constant
Bit rate                    : 640 kb/s
Channel(s)                  : 6 channels
Channel positions           : Front: L C R, Side: L R, LFE
Sampling rate               : 48.0 kHz
Frame rate                  : 31.250 FPS (1536 spf)
Bit depth                   : 16 bits
Compression mode            : Lossy
Stream size                 : 355 MiB (7%)
Title                       : Original, 5.1 640 Kbps
Language                    : English
Service kind                : Complete Main
Default                     : No
Forced                      : No

Text #1
ID                          : 4
Format                      : UTF-8
Codec ID                    : S_TEXT/UTF8
Codec ID/Info               : UTF-8 Plain Text
Duration                    : 1 h 15 min
Bit rate                    : 42 b/s
Count of elements           : 778
Stream size                 : 23.5 KiB (0%)
Title                       : Eng full+song
Language                    : English
Default                     : No
Forced                      : No

Text #2
ID                          : 5
Format                      : PGS
Muxing mode                 : zlib
Codec ID                    : S_HDMV/PGS
Codec ID/Info               : Picture based subtitle format used on BDs/HD-DVDs
Duration                    : 1 h 11 min
Bit rate                    : 13.7 kb/s
Count of elements           : 10213
Stream size                 : 6.95 MiB (0%)
Title                       : Eng SDH
Language                    : English
Default                     : No
Forced                      : No

Menu
00:00:00.000                : en:Opening
00:00:37.000                : en:In Central Park
00:03:03.875                : en:The Winter of 1925
00:10:17.242                : en:The Half Breed
00:24:57.709                : en:Quarantine
00:26:20.709                : en:The Fastest Dog
00:32:31.310                : en:Lost...
00:34:32.310                : en:Balto's Quest
00:38:36.810                : en:The Steele's Big Slip
00:40:08.377                : en:Balto & the Bear
00:43:29.877                : en:The Rescuers
00:48:47.678                : en:The New Leader
00:54:42.646                : en:The Survivor
00:57:48.046                : en:Time of the Wolf
01:02:14.046                : en:Avalanche!
01:03:06.780                : en:The Ice Cavern
01:04:56.880                : en:A Hero!
01:10:33.047                : en:The Idomitable Spirit
01:12:27.514                : en:End Titles


Джерело: & &
Подяка за український звук rooster'у та karvai0, за постери - Deluxeman'у та Sherlock249


Срібний реліз (на рейтинг впливає 50% завантаженого)
 Трекер:    Зареєстрований   

Завантажити / скачати мультфільм українською



відео для новачків



 Зареєстрований:   2017-04-28 14:35
 Розмір:   4.67 GB 
 Оцінка мультфільму:   3.6/10 (Голосів: 14)
   
Інші релізи
   Балто / Balto (1995) 1080p Ukr/Eng | Sub Eng igor911  6 / 0   7.13 GB   2017-04-30 19:53 
   Балто / Balto (1995) igor911  17 / 0   1.45 GB   2017-04-29 16:29 
   Балто / Balto (1995) AVC igor911  5 / 0   2.28 GB   2017-04-29 09:12 
   Балто / Balto (1995) Remux 1080p Ukr/Eng | Sub Eng igor911  8 / 0   16.83 GB   2017-04-27 18:48 
   Балто / Balto (1995) Ukr/Eng rooster  15 / 0   1.45 GB   2011-02-05 16:24 
bot 
робот


З нами з: 30.09.07
Востаннє: 26.05.05
Повідомлень: 17363

2017-04-28 14:34  
Тему перенесено з Анонси релізів до форуму Мультфільми в HD


igor911

Ваш часовий пояс: GMT + 2 Години

Нова тема   Відповісти