Балто / Balto (1995) Remux 1080p Ukr/Eng | Sub Eng

Нові коментарі

Нова тема   Відповісти
Автор Повідомлення
Anonymous 







2017-04-27 11:58  
Балто / Balto (1995) Remux 1080p Ukr/Eng | Sub Eng

Балто / Balto (1995) Remux 1080p Ukr/Eng | Sub Eng
Альтернативні українські постери:




Жанр: анімація, драма, пригодницький, сімейний, історичний
Країна: США



Кінокомпанія: Amblimation, Amblin Entertainment, Universal Pictures
Продюсер: Стівен Спілберг / Steven Spielberg
Режисер: Саймон Веллс / Simon Wells
Актори: Кевін Бейкон / Kevin Bacon, Боб Хоскінс / Bob Hoskins, Бріджет Фонда / Bridget Fonda, Джим Камінгс / Jim Cummings, Філ Коллінз / Phil Collins, Джек Енджел / Jack Angel, Денні Манн / Danny Mann та інші

Сюжет:
Наполовину лайка, наполовину вовк, Балто й сам не знає ким він є насправді . Усіма гнаний бурлака в крижаній пустелі Аляски. Тільки його друзі полярний гусак Борис, ведмежата Мак і Лак і красуня-лайка Дженна впевнені, що хоч Балто і не такий як усі, але в його грудях б'ється шляхетне серце.

Одного разу трапляється нещастя. Епідемія дифтерії охопила дітей невеликого селища, а люта хуртовина зробила непрохідними всі дороги. Лише собача запряжка може подолати шістсот миль через сліпучий арктичний шторм і привезти рятівні ліки.

Але собаки збилися з дороги десь на замерзлих просторах. Тепер тільки Балто може знайти запряжку й урятувати дітей, а разом із тим, стати героєм і справжньою легендою!


Рейтинг MPAA: G - нема вікових обмежень
Вікова категорія: 0+

Тривалість: 01:17:37
Якість: Remux
Відео:
кодек:
розмір кадру: 1920 х 1080
бітрейт: 27901 кб/с

Аудіо # 1:
мова: українська
переклад: багатоголосий закадровий | Так Треба Продакшн
кодек: 5.1
бітрейт: 384 кб/с

Аудіо # 2:
мова: англійська
переклад: оригінал
кодек: -HD MA 5.1
бітрейт: 2744 кб/с

Субтитри:
мова: англійська (SDH)
тип: пререндерні
формат: pgs

Збережено оригінальні розділи, як на Blu-ray
Info
Код:
Complete name               : Balto (1995) [Ukr,Eng sub.Eng] Remux 1080p [Hurtom].
Format                      :
Format version              : Version 4 / Version 2
File size                   : 16.8 GiB
Duration                    : 1 h 17 min
Overall bit rate mode       : Variable
Overall bit rate            : 31.0 Mb/s
Movie name                  : Балто / Balto (1995) [Ukr,Eng sub.Eng] Remux 1080p [Hurtom]
Released date               : 1995
Writing library             : libebml v1.3.4 + v1.4.5
Cover                       : Yes
Comment                     : http://www.imdb.com/title/tt0112453/
Attachments                 : cover.jpg
ARTIST                      : Кевін Бейкон / Kevin Bacon, Боб Хоскінс / Bob Hoskins, Бріджет Фонда / Bridget Fonda, Джим Камінгс / Jim Cummings, Філ Коллінз / Phil Collins, Джек Енджел / Jack Angel, Денні Манн / Danny Mann та інші
DIRECTOR                    : Саймон Веллс / Simon Wells
GENRE                       : анімація, драма, пригодницький, сімейний, історичний
SYNOPSIS                    : Наполовину лайка, наполовину вовк, Балто й сам не знає ким він є насправді . Усіма гнаний бурлака в крижаній пустелі Аляски. Тільки його друзі російський полярний гусак Борис, ведмежата Мак і Лак і красуня-лайка Дженна впевнені, що хоч Балто і не такий як усі, але в його грудях б'ється шляхетне серце. /  / Одного разу трапляється нещастя. Епідемія дифтерії охопила дітей невеликого селища, а люта хуртовина зробила непрохідними всі дороги. Лише собача запряжка може подолати шістсот миль через сліпучий арктичний шторм і привезти рятівні ліки. /  / Але собаки збилися з дороги десь на замерзлих просторах. Тепер тільки Балто може знайти запряжку й урятувати дітей, а разом із тим, стати героєм і справжньою легендою!
Url                         : https://toloka.to/t81593

Video
ID                          : 1
Format                      : AVC
Format/Info                 : Advanced Video Codec
Format profile              : [email protected]
Format settings, CABAC      : Yes
Format settings, ReFrames   : 2 frames
Codec ID                    : V_MPEG4/ISO/AVC
Duration                    : 1 h 17 min
Bit rate mode               : Variable
Bit rate                    : 27.9 Mb/s
Width                       : 1 920 pixels
Height                      : 1 080 pixels
Display aspect ratio        : 16:9
Frame rate mode             : Constant
Frame rate                  : 23.976 (24000/1001) FPS
Color space                 : YUV
Chroma subsampling          : 4:2:0
Bit depth                   : 8 bits
Scan type                   : Progressive
Bits/(Pixel*Frame)          : 0.561
Stream size                 : 15.1 GiB (90%)
Title                       : Балто / Balto (1995) Remux 1080p [HDClub]
Language                    : English
Default                     : Yes
Forced                      : No

Audio #1
ID                          : 2
Format                      : AC-3
Format/Info                 : Audio Coding 3
Format settings, Endianness : Big
Codec ID                    : A_AC3
Duration                    : 1 h 17 min
Bit rate mode               : Constant
Bit rate                    : 384 kb/s
Channel(s)                  : 6 channels
Channel positions           : Front: L C R, Side: L R, LFE
Sampling rate               : 48.0 kHz
Frame rate                  : 31.250 FPS (1536 spf)
Bit depth                   : 16 bits
Compression mode            : Lossy
Stream size                 : 213 MiB (1%)
Title                       : MVO [ICTV, TTP] 5.1 384 Kbps [Hurtom-rooster]
Language                    : Ukrainian
Service kind                : Complete Main
Default                     : Yes
Forced                      : Yes

Audio #2
ID                          : 3
Format                      :
Format/Info                 : Digital Theater Systems
Format profile              : MA / Core
Mode                        : 16
Format settings, Endianness : Big
Codec ID                    : A_DTS
Duration                    : 1 h 17 min
Bit rate mode               : Variable / Constant
Bit rate                    : 2 744 kb/s / 1 509 kb/s
Channel(s)                  : 6 channels
Channel positions           : Front: L C R, Side: L R, LFE
Sampling rate               : 48.0 kHz
Frame rate                  : 93.750 FPS (512 spf)
Bit depth                   : 24 bits
Compression mode            : Lossless / Lossy
Stream size                 : 1.49 GiB (9%)
Title                       : Original, DTH-HD MA 5.1 2744 Kbps
Language                    : English
Default                     : No
Forced                      : No

Text
ID                          : 4
Format                      : PGS
Muxing mode                 : zlib
Codec ID                    : S_HDMV/PGS
Codec ID/Info               : Picture based subtitle format used on BDs/HD-DVDs
Duration                    : 1 h 11 min
Bit rate                    : 13.7 kb/s
Count of elements           : 2553
Stream size                 : 6.97 MiB (0%)
Language                    : English
Default                     : No
Forced                      : No

Menu
00:00:00.000                : en:Chapter 1
00:09:51.006                : en:Chapter 2
00:19:07.145                : en:Chapter 3
00:31:06.030                : en:Chapter 4
00:40:07.530                : en:Chapter 5
00:48:47.632                : en:Chapter 6
00:58:10.403                : en:Chapter 7
01:10:34.271                : en:Chapter 8


Джерело: &
Подяка за український звук rooster'у та karvai0, за постери - Deluxeman'у, Sherlock249, dimon-2018.


Золотий реліз (завантажене не впливає на рейтинг)
 Трекер:    Зареєстрований   

Завантажити / скачати мультфільм українською



відео для новачків



 Зареєстрований:   2017-04-27 17:48
 Розмір:   16.83 GB 
 Оцінка мультфільму:   5.5/10 (Голосів: 20)
   
Інші релізи
   Балто / Balto (1995) AVC 2xUkr/Eng | Sub Eng Maters  3 / 0   1.69 GB   2020-04-09 23:43 
   Балто / Balto (1995) 1080p Ukr/Eng | Sub Eng igor911  2 / 0   7.13 GB   2017-04-30 18:53 
   Балто / Balto (1995) igor911  2 / 0   1.45 GB   2017-04-29 15:29 
   Балто / Balto (1995) AVC igor911  1 / 0   2.28 GB   2017-04-29 08:12 
   Балто / Balto (1995) 720p Ukr/Eng | Sub Eng igor911  6 / 0   4.67 GB   2017-04-28 13:35 
   Балто / Balto (1995) Ukr/Eng rooster  3 / 0   1.45 GB   2011-02-05 15:24 
OL3X 
VIP


З нами з: 25.11.15
Востаннє: 04.03.21
Повідомлень: 461

2017-04-27 16:43  
Мульт мого дитинства
leicheman 
Відео Гуртом - фільмокрай
Відео Гуртом - фільмокрай


З нами з: 03.07.14
Востаннє: 06.03.21
Повідомлень: 5949

2017-04-27 20:34  
Пам'ятаю дивився малим.
Але не читайте про Балто га Вікі , а то розчаруйтесь трошки.

khaled 
Поважний учасник


З нами з: 30.06.09
Востаннє: 04.03.21
Повідомлень: 191

2017-04-28 08:08  
Ріп 1080 планується?
Anonymous 







2017-04-30 14:15  
таки викладу, з'явився пристойний ріп.
Anonymous 







2017-04-30 19:07  
AVI | AVC | 720p | 1080p
Ваш часовий пояс: GMT + 2 Години

Нова тема   Відповісти