Людина у високому замку (Сезон 1) / The Man in the High Castle (Season 1) (2015) 4K 2160p Ukr/Eng | Sub Eng

Нові коментарі

Нова тема   Відповісти
Автор Повідомлення
НеЗупиняйПродакшн 
VIP


З нами з: 28.07.15
Востаннє: 26.11.20
Повідомлень: 1254

2017-04-27 11:16  
_________________________________________________________________________________


_________________________________________________________________________________


_________________________________________________________________________________

Людина у високому замку (Сезон 1) / The Man in the High Castle (Season 1) (2015) 4K 2160p Ukr/Eng | Sub Eng

Людина у високому замку (Сезон 1) / The Man in the High Castle (Season 1) (2015) 4K 2160p Ukr/Eng | Sub Eng


Жанр: фантастика, драма, трилер
Країна: США



Режисер: Девід Семел
Актори: Алекса Давалос, Руперт Еванс, Люк Клейнтенк, DJ Куалс, Джоель де ла Фуенте та інші

Сюжет:
Погляд на альтернативну історію Північної Америки. Яким могло би бути життя американців, якби Другу світову війну виграли не Союзники, а Вісь. Події розгортаються у США 60-х років.


Тривалість: 1 серія: ~ 01:00:00 (цілком серій: 10)
Перелік серій
1. Новий світ
2. Світанок
3. Жінка з малюнку
4. Одкровення
5. Нові правила
6. Три мавпи
7. Істина
8. Кінець світу
9. Доброта
10. Вихід
Якість: 2160p (4K)
Відео:
кодек:
розмір кадру: 3840 х 2160
бітрейт: ~ 28.9 Мб/c

Аудіо 1:
мова: українська
озвучення: професійне багатоголосе закадрове
кодек: AC-3 2.0
бітрейт: 320 кб/с

Озвучено студією "НеЗупиняйПродакшн"

Примітка: чому не 5.1?
Коли серіал озвучувався ріпів зі звуком 5.1 не було, тож доріжки озвучення створювались саме в 2.0. Зараз, на жаль, вже немає "сирців" озвучення, щоб перезвести звук в 5.1.
Аудіо 2:
мова: англійська (оригінал)
кодек: AC-3 5.1
бітрейт: 640 кб/с

Субтитри 1:
мова: англійська
тип: програмні (м'які)
формат: *.srt
Скріншоти







Info
Format :
Format version : Version 4 / Version 2
File size : 12.6 GiB
Duration : 1 h 0 min
Overall bit rate : 29.9 Mb/s
Movie name : Людина у високому замку (1 сезон) | Озвучено на НеЗупиняйПродакшн
Encoded date : UTC 2017-04-24 10:57:50
Writing application : v8.3.0 ('Over the Horizon') 64bit
Writing library : libebml v1.3.1 + v1.4.2
Cover : Yes
Attachments : cover.jpg

Video
ID : 1
Format : AVC
Format/Info : Advanced Video Codec
Format profile : [email protected]
Format settings, CABAC : Yes
Format settings, ReFrames : 5 frames
Codec ID : V_MPEG4/ISO/AVC
Duration : 1 h 0 min
Bit rate : 28.9 Mb/s
Width : 3 840 pixels
Height : 2 160 pixels
Display aspect ratio : 16:9
Frame rate mode : Constant
Frame rate : 23.976 (24000/1001) FPS
Color space : YUV
Chroma subsampling : 4:2:0
Bit depth : 8 bits
Scan type : Progressive
Bits/(Pixel*Frame) : 0.146
Stream size : 12.2 GiB (97%)
Writing library : core 148 r2638 7599210
Encoding settings : cabac=1 / ref=5 / deblock=1:-1:-1 / analyse=0x3:0x133 / me=umh / subme=10 / psy=1 / psy_rd=1.00:0.15 / mixed_ref=1 / me_range=48 / chroma_me=1 / trellis=2 / 8x8dct=1 / cqm=0 / deadzone=21,11 / fast_pskip=1 / chroma_qp_offset=-3 / threads=12 / lookahead_threads=2 / sliced_threads=0 / nr=0 / decimate=0 / interlaced=0 / bluray_compat=0 / constrained_intra=0 / bframes=8 / b_pyramid=2 / b_adapt=2 / b_bias=0 / direct=3 / weightb=1 / open_gop=0 / weightp=2 / keyint=240 / keyint_min=23 / scenecut=40 / intra_refresh=0 / rc_lookahead=60 / rc=crf / mbtree=1 / crf=17.0 / qcomp=0.70 / qpmin=0 / qpmax=69 / qpstep=4 / vbv_maxrate=300000 / vbv_bufsize=300000 / crf_max=0.0 / nal_hrd=none / filler=0 / ip_ratio=1.40 / aq=1:0.90
Default : Yes
Forced : No

Audio #1
ID : 2
Format : AC-3
Format/Info : Audio Coding 3
Format settings, Endianness : Big
Codec ID : A_AC3
Duration : 1 h 0 min
Bit rate mode : Constant
Bit rate : 320 kb/s
Channel(s) : 2 channels
Channel positions : Front: L R
Sampling rate : 44.1 kHz
Frame rate : 28.711 FPS (1536 spf)
Bit depth : 16 bits
Compression mode : Lossy
Delay relative to video : 3 ms
Stream size : 138 MiB (1%)
Title : Українська (НеЗупиняйПродакшн)
Language : Ukrainian
Service kind : Complete Main
Default : Yes
Forced : No

Audio #2
ID : 3
Format : AC-3
Format/Info : Audio Coding 3
Format settings, Endianness : Big
Codec ID : A_AC3
Duration : 1 h 0 min
Bit rate mode : Constant
Bit rate : 640 kb/s
Channel(s) : 6 channels
Channel positions : Front: L C R, Side: L R, LFE
Sampling rate : 48.0 kHz
Frame rate : 31.250 FPS (1536 spf)
Bit depth : 16 bits
Compression mode : Lossy
Delay relative to video : 3 ms
Stream size : 275 MiB (2%)
Language : English
Service kind : Complete Main
Default : No
Forced : No

Text
ID : 4
Format : UTF-8
Codec ID : S_TEXT/UTF8
Codec ID/Info : UTF-8 Plain Text
Duration : 58 min 20 s
Bit rate : 50 b/s
Count of elements : 721
Stream size : 21.6 KiB (0%)
Language : English
Default : No
Forced : No


Авторський реліз (завантажувати можна без реєстрації)
 Трекер:    Зареєстрований   

Завантажити / скачати серіал українською



відео для новачків



 Зареєстрований:   2017-04-27 11:16
 Розмір:   108.23 GB 
 Оцінка серіалу:   10/10 (Голосів: 20)
   
NeetScrool 
Відео Гуртом - фільмокрай
Відео Гуртом - фільмокрай


З нами з: 10.01.13
Востаннє: 27.11.20
Повідомлень: 3105

2017-04-27 22:44  
4-й з гори скріншот.


Явно бракує бітрейту. Замість плавного градієнту - жижа.

НеЗупиняйПродакшн 
VIP


З нами з: 28.07.15
Востаннє: 26.11.20
Повідомлень: 1254

2017-04-28 07:27  
NeetScrool написано:
4-й з гори скріншот.

Ну, 4K-ріп лише один є в мережі і це саме цей. Людина попросила зробити реліз - ми зробили.

igor911 
Модератор відео


З нами з: 18.01.08
Востаннє: 27.11.20
Повідомлень: 15082

2017-04-28 09:03  
NeetScrool написано:
Замість плавного градієнту - жижа

Чому дивуватись, коли навіть видавці ліцензійних UHD Blu-ray дисків бадяжать фабулу та апскейли (Assassin's Creed, Independence Day, Oblivion), що за якістю та деталізацією поступаються звичайним FHD Blu-ray. Що ж тоді говорити про 'ки та 'и, які оптимізовані в першу чергу під пропускну здатність інтернет каналу.

Vasulevus 
Частий відвідувач


З нами з: 14.08.15
Востаннє: 21.11.20
Повідомлень: 36

2017-05-02 09:31  
Поверніться на роздачу, будь ласка.
НеЗупиняйПродакшн 
VIP


З нами з: 28.07.15
Востаннє: 26.11.20
Повідомлень: 1254

2017-05-02 11:10  
Vasulevus написано:
Поверніться на роздачу, будь ласка.

Ввечері повернемось.

foxlazy 
Новенький


З нами з: 17.11.16
Востаннє: 25.11.20
Повідомлень: 2

2017-06-28 22:36  
Чи хоть хтось помітив розсинхрон звук/відео? Наприклад, 5 серія 1 сезон. Звук випереджає відео приблизно на 5 секунд.
avtostop-ua 
Новенький


З нами з: 07.02.11
Востаннє: 28.10.20
Повідомлень: 17

2018-02-03 13:28  
Не скачується більше 99,9%
Третій тиждень не може докачати 9-ту серію ...

vlasentiy 
Новенький


З нами з: 26.06.18
Востаннє: 26.11.20
Повідомлень: 3

2019-01-24 22:40  
Поверніться на роздачу, будь ласка. !
g8799815 
Новенький


З нами з: 15.08.15
Востаннє: 06.04.20
Повідомлень: 3

2019-04-21 11:59  
Поверніться на роздачу, будь ласка
ivic4u 
Новенький


З нами з: 27.11.17
Востаннє: 12.11.20
Повідомлень: 14

2019-06-07 09:45  
Поверніться на роздачу, будь ласка
ved'mak 
Новенький


З нами з: 09.11.14
Востаннє: 27.11.20
Повідомлень: 3

2020-03-21 20:56  
У п'ятій серії зсув звуку становить приблизно 12980 мс.
Ваш часовий пояс: GMT + 2 Години

Нова тема   Відповісти