Американські боги (Сезон 1, Серії 1-4) / American Gods (Season 1, Episodes 1-4) (2017) 720p Ukr/Eng | Sub Eng

Нові коментарі

Нова тема   Відповісти
Автор Повідомлення
НеЗупиняйПродакшн 
Відео Гуртом - озвучення
Відео Гуртом - озвучення


З нами з: 28.07.15
Востаннє: 28.05.17
Повідомлень: 331

2017-04-26 20:45  
_________________________________________________________________________________



Американські боги (Сезон 1, Серії 1-4) / American Gods (Season 1, Episodes 1-4) (2017) 720p

Американські боги (Сезон 1, Серії 1-4) / American Gods (Season 1, Episodes 1-4) (2017) 720p Ukr/Eng | Sub Eng


Жанр: драма, фентезі, містика
Країна: США



Кінокомпанія: Starz
Режисер: Девід Слейд
Актори: Рікі Вітл, Єн МакШейн, Емілі Браунінґ, Пабло Шрайбер та інші

Сюжет:
Екранізація бестселлара Ніла Ґеймана. Чоловік на ім'я Тінь виходить з в'язниці на кілька днів раніше терміну. За день до цього, він дізнається, що його дружина Лора загинула в автокатастрофі. На шляху додому Тінь зустрічає загадкового чоловіка, який називає себе Містером Середою та втягує його у війну між "старими" і "новими" богами.


Тривалість: 1 серія: ~60 хв. (цілком серій: 8)
Перелік серій та дати релізу українською
1. Cад на кістках | 2 травня
2. Таємниця ложок | 9 травня
3. Голова, повна снігу | 16 травня
4. Мерзотник пішов | 23 травня
5. Лимонний запах | 30 травня
6. Вбивство богів | 6 червня
7. Молитва за Свіні Вар'ята | 13 червня
8. Прийди до Ісуса | 20 червня
Якість: 720p
Відео:
кодек:
розмір кадру: 1280 х 720
бітрейт: 4 097 кб/с

Аудіо # 1:
озвучення: професійне багатоголосе закадрове
кодек: 5.1
бітрейт: 640 кб/с

Озвучено студією НеЗупиняйПродакшн


Аудіо # 2:
мова: англійська
переклад: оригінал
кодек: E- 5.1
бітрейт: 640 кб/с

Субтитри # 1:
мова: англійська (повні)
тип: програмні (м'які)
формат: *.srt

Субтитри # 2:
мова: англійська (для людей з вадами слуху)
тип: програмні (м'які)
формат: *.srt
Скріншоти






Info

Format :
Format version : Version 4 / Version 2
File size : 2.41 GiB
Duration : 1 h 2 min
Overall bit rate : 5 476 kb/s
Movie name : Американські боги (1 сезон) | Озвучено на НеЗупиняйПродакшн
Encoded date : UTC 2017-05-02 15:36:10
Writing application : mkvmerge v8.3.0 ('Over the Horizon') 64bit
Writing library : libebml v1.3.1 + libmatroska v1.4.2
Cover : Yes
Attachments : cover.jpg

Video
ID : 1
Format : AVC
Format/Info : Advanced Video Codec
Format profile : [email protected]
Format settings, CABAC : Yes
Format settings, ReFrames : 9 frames
Codec ID : V_MPEG4/ISO/AVC
Duration : 1 h 2 min
Bit rate : 4 191 kb/s
Width : 1 280 pixels
Height : 720 pixels
Display aspect ratio : 16:9
Frame rate mode : Constant
Frame rate : 23.976 (24000/1001) FPS
Color space : YUV
Chroma subsampling : 4:2:0
Bit depth : 8 bits
Scan type : Progressive
Bits/(Pixel*Frame) : 0.190
Stream size : 1.84 GiB (77%)
Writing library : core 148 r2762+12 (master: 5d7902f / tmod: fdded9f) [X86_64]
Encoding settings : cabac=1 / ref=9 / deblock=1:-3:-3 / analyse=0x3:0x113 / me=umh / subme=10 / psy=1 / fade_compensate=0.00 / psy_rd=1.05:0.15 / mixed_ref=1 / me_range=48 / chroma_me=1 / trellis=2 / 8x8dct=1 / cqm=0 / deadzone=21,11 / fast_pskip=0 / chroma_qp_offset=-3 / threads=22 / lookahead_threads=3 / sliced_threads=0 / nr=0 / decimate=0 / interlaced=0 / bluray_compat=0 / constrained_intra=0 / fgo=0 / bframes=9 / b_pyramid=2 / b_adapt=2 / b_bias=0 / direct=3 / weightb=1 / open_gop=0 / weightp=2 / keyint=250 / keyint_min=23 / scenecut=40 / intra_refresh=0 / rc=crf / mbtree=0 / crf=18.0000 / qcomp=0.65 / qpmin=0:0:0 / qpmax=69:69:69 / qpstep=4 / ip_ratio=1.40 / pb_ratio=1.30 / aq=3:0.75 / aq-sensitivity=10.00 / aq-factor=1.00:1.00:1.00 / aq2=0 / aq3=0
Language : English
Default : Yes
Forced : No

Audio #1
ID : 2
Format : AC-3
Format/Info : Audio Coding 3
Format settings, Endianness : Big
Codec ID : A_AC3
Duration : 1 h 2 min
Bit rate mode : Constant
Bit rate : 640 kb/s
Channel(s) : 6 channels
Channel positions : Front: L C R, Side: L R, LFE
Sampling rate : 48.0 kHz
Frame rate : 31.250 FPS (1536 spf)
Bit depth : 16 bits
Compression mode : Lossy
Stream size : 288 MiB (12%)
Title : Українська (НеЗупиняйПродакшн)
Language : Ukrainian
Service kind : Complete Main
Default : Yes
Forced : No

Audio #2
ID : 3
Format : E-AC-3
Format/Info : Enhanced Audio Coding 3
Format settings, Endianness : Big
Codec ID : A_EAC3
Duration : 1 h 2 min
Bit rate mode : Constant
Bit rate : 640 kb/s
Channel(s) : 6 channels
Channel positions : Front: L C R, Side: L R, LFE
Sampling rate : 48.0 kHz
Frame rate : 187.500 FPS (256 spf)
Compression mode : Lossy
Stream size : 288 MiB (12%)
Language : English
Service kind : Complete Main
Default : No
Forced : No

Text #1
ID : 4
Format : UTF-8
Codec ID : S_TEXT/UTF8
Codec ID/Info : UTF-8 Plain Text
Duration : 57 min 59 s
Bit rate : 52 b/s
Count of elements : 790
Stream size : 22.4 KiB (0%)
Title : English
Language : English
Default : No
Forced : No

Text #2
ID : 5
Format : UTF-8
Codec ID : S_TEXT/UTF8
Codec ID/Info : UTF-8 Plain Text
Duration : 1 h 2 min
Bit rate : 53 b/s
Count of elements : 914
Stream size : 24.6 KiB (0%)
Title : English (SDH)
Language : English
Default : No
Forced : No


На озвучення серіалу проходить збір коштів.
Станом на 23.05 на озвучення 5-6 серій зібрано всю суму. На озвучення 7 серії зібрано 1193.44 грн. із необхідних 1900.
Релізи з українським озвученням відбуватимуться і затримкою у півтори доби після виходу серії у США.


Авторський реліз (завантажувати можна без реєстрації)
 Трекер:    Зареєстрований   

Завантажити / скачати серіал українською



відео для новачків



 Зареєстрований:   2017-05-23 18:36
 Розмір:   9.19 GB 
 Оцінка серіалу:   9.2/10 (Голосів: 26)
   
НеЗупиняйПродакшн 
Відео Гуртом - озвучення
Відео Гуртом - озвучення


З нами з: 28.07.15
Востаннє: 28.05.17
Повідомлень: 331

2017-04-30 10:37  

Cтаном на 30.04 на озвучення 1-4 серій зібрано всю суму. На озвучення п'ятої серії зібрано 344.05 із необхідних 1900.

bot 
робот


З нами з: 30.09.07
Востаннє: 26.05.05
Повідомлень: 16931

2017-05-02 21:02  
Тему перенесено з Анонси релізів до форуму Серіали в HD


НеЗупиняйПродакшн

vic7400 
Новенький


З нами з: 25.01.13
Востаннє: 28.05.17
Повідомлень: 8

2017-05-03 10:43  
хлопці, конче потрібні UKR SUBTITLE ,для перегляду цього шедевру!
sandy 
Новенький


З нами з: 05.04.14
Востаннє: 28.05.17
Повідомлень: 1

2017-05-05 20:24  
Пару місяців тому книгу прочитав. Цікаво поглянути
НеЗупиняйПродакшн 
Відео Гуртом - озвучення
Відео Гуртом - озвучення


З нами з: 28.07.15
Востаннє: 28.05.17
Повідомлень: 331

2017-05-09 18:30  
Додано 2 сeрію. У першій серії виправлено рівень гучності.
centr2 
Новенький


З нами з: 26.09.15
Востаннє: 28.05.17
Повідомлень: 7

2017-05-10 13:34  
шо за"хараШО" ???
don pedro 
Попереджень: 1
Попереджень: 1 


З нами з: 29.06.11
Востаннє: 28.05.17
Повідомлень: 9709

2017-05-10 15:09  
centr2
Так в англійському оригіналі. Чорнобог і його сестри зі Східної Європи.

НеЗупиняйПродакшн 
Відео Гуртом - озвучення
Відео Гуртом - озвучення


З нами з: 28.07.15
Востаннє: 28.05.17
Повідомлень: 331

2017-05-16 20:38  
Додано 3 серію
НеЗупиняйПродакшн 
Відео Гуртом - озвучення
Відео Гуртом - озвучення


З нами з: 28.07.15
Востаннє: 28.05.17
Повідомлень: 331

2017-05-23 18:37  
Додано 4 серію
ZASE 
Відео Гуртом - підтримка та поширення
Відео Гуртом - підтримка та поширення


З нами з: 14.04.09
Востаннє: 28.05.17
Повідомлень: 315

2017-05-23 19:53  
Вельми дякую!
Vasulevus 
Частий відвідувач


З нами з: 14.08.15
Востаннє: 28.05.17
Повідомлень: 34

2017-05-23 19:56  
Цей серіал треба показувати атеїстам.
Ваш часовий пояс: GMT + 2 Години

Нова тема   Відповісти