Паралельний Світ на СТБ (2007-2012)

Нові коментарі

Нова тема   Відповісти
Автор Повідомлення
generalblack 
Новенький


З нами з: 24.05.15
Востаннє: 14.08.17
Повідомлень: 3

2017-04-25 15:48  
Паралельний Світ на СТБ (2007-2012)

Паралельний Світ на СТБ (2007-2012)


Жанр: документальний
Країна: Україна

Телеканал / кіностудія: СТБ / Пілот
Сюжет:

Паралельний світ — телепередача, яка присвячує нас в таємничу сторону буття, магічних обрядів і міфів, світ духів і демонів, різних інопланетних істот. У даній програмі не вигадані історії, а реальні події. Події, які з не зрозумілих причин трапилися з учасниками програми, людьми, які хочуть знайти причину що відбувається і пояснення всьому, що з ними трапляється. І в цьому допоможуть маги і чаклуни, які вже багато разів стикалися з подібним.

2007 1 Сезон 33 випуски
2008 2 Сезон 34 випуски
2009 3 Сезон 35 випусків
2010 4 Сезон 24 випуски
2011 5 Сезон 39 випусків
2012 6 Сезон 37 випусків


Тривалість: ~ 50хв
Якість:

Відео:
Кодек: MPEG-4 Visual
розмір кадру: 640 х 480
бітрейт: 800 кб/с

Аудіо:
мова: українська
переклад: оригінал
Кодек: mp3
бітрейт: 64 кб/с

Джерело:

Скріншоти






Info

Format : AVI
Format/Info : Audio Video Interleave
File size : 307 MiB
Duration : 48mn 51s
Overall bit rate : 878 Kbps
Writing application : Lavf51.12.1

Video
ID : 0
Format : MPEG-4 Visual
Codec ID : MP42
Codec ID/Info : Microsoft MPEG-4 v2 (pre-standard)
Codec ID/Hint : Microsoft
Duration : 48mn 50s
Bit rate : 801 Kbps
Width : 640 pixels
Height : 480 pixels
Display aspect ratio : 4:3
Frame rate : 29.970 fps
Compression mode : Lossy
Bits/(Pixel*Frame) : 0.087
Stream size : 280 MiB (91%)

Audio
ID : 1
Format : MPEG Audio
Format version : Version 1
Format profile : Layer 3
Codec ID : 55
Codec ID/Hint : MP3
Duration : 48mn 51s
Bit rate mode : Constant
Bit rate : 64.0 Kbps
Channel(s) : 1 channel
Sampling rate : 44.1 KHz
Compression mode : Lossy
Stream size : 22.4 MiB (7%)
Alignment : Aligned on interleaves
Interleave, duration : 26 ms (0.78 video frame)
Writing library : LAME3.97


Золотий реліз (завантажене не впливає на рейтинг)
 Трекер:    Зареєстрований   

Завантажити / скачати фільм українською



відео для новачків



 Зареєстрований:   2017-04-25 15:48
 Розмір:   58.04 GB 
 Оцінка фільму:   7/10 (Голосів: 6)
   
kll1 
Свій


З нами з: 13.06.16
Востаннє: 10.08.17
Повідомлень: 101

2017-04-25 16:48  
generalblack написано:
Паралельний світ — телепередача, яка присвячує нас в таємничу сторону буття, магічних обрядів і міфів, світ духів і демонів, різних інопланетних істот.

generalblack написано:
Творці телепередачі проводять розслідування на всілякі тематики, які є життєво важливими для вирішення проблем українців.

EvGaS 
Відео Гуртом - підтримка та поширення
Відео Гуртом - підтримка та поширення


З нами з: 27.02.12
Востаннє: 17.08.17
Повідомлень: 3331

2017-04-25 17:18  
generalblack: Оформлене не за правилами. Будь ласка, перечитайте правила з оформлення, або ж зарубають реліза.

kll1, порадився з власним демоном: той каже, що все те — побрехеньки й наклеп маркетологів.

wolesj 
VIP


З нами з: 15.07.12
Востаннє: 16.08.17
Повідомлень: 453

2017-04-25 18:45  
generalblack написано:
Деякі закляття і проклёни настільки шокуючі за своїм характером, що не вкладаються в розумі глядача, але тим не менш правда.


То, може й не варто пхати собі в розум 58 GB цілковитої дурні?
Подумайте, якщо є голова на плечах.

generalblack 
Новенький


З нами з: 24.05.15
Востаннє: 14.08.17
Повідомлень: 3

2017-04-25 18:58  
wolesj
Вам вирішувати, чи пхати в голову 58Гб всілякої дурні.
Для себе я висновки зробив.
Кому не цікаво не качайте!

11FrYkT 
Модератор відео


З нами з: 20.02.11
Востаннє: 17.08.17
Повідомлень: 3798

2017-04-25 20:50  
generalblack написано:

Відео:
розмір кадру: 640 х 480
бітрейт: 800 кб/с

вкажіть відео кодек
Цитата:
мова: українська
переклад: оригінал
бітрейт: 64 кб/с

та аудіокодек

додайте скріншоти, також не завадить перелік сезонів, чи епізодів, дивлячись що було в цій передачі

Ваш часовий пояс: GMT + 2 Години

Нова тема   Відповісти