Авіатор / The Aviator (2004) 1080p Ukr/Eng | Sub Ukr/Eng

Нові коментарі

Нова тема   Відповісти
Автор Повідомлення
Argentum 
Свій


З нами з: 25.09.11
Востаннє: 16.08.17
Повідомлень: 62

2017-04-25 15:08  
Авіатор / The Aviator (2004) 1080p Ukr/Eng | Sub Ukr/Eng

Авіатор / The Aviator (2004) 1080p Ukr/Eng | Sub Ukr/Eng


Жанр: драма, біографічний, історичний
Країна: США



Кінокомпанія: Miramax Films, Warner Brothers
Режисер: Мартін Скорсезе
Актори: Леонардо Ді Капріо, Кейт Бланшетт, Кейт Бекінсейл, Джон Рейлі, Алан Алда, Алек Болдвін

Сюжет:
Фільм оповідає про долю американського мільйонера, винахідника та режисера, прототипом якого є Говард Г'юз.
Син винахідника і промисловця, Говард з молодих років має можливість займатися дорогими технічними розробками та присвячує себе авіації. Крім цього, Г'юз знімає у Голлівуді фільм про битву винищувачів часів Першої світової («Ангели пекла»), який на ті часи (кінець 1920-х) є дуже дорогим. Г'юз нарешті отримує фінансування, та все ж прокат фільму виявляється успішним і Г'юз може продовжувати свій бізнес, будівництво і випробування літаків нового покоління.
Починається війна, Міністерство оборони США замовляє Г'юзу розробку літака-розвідника. Проте війна закінчується, а літаки так і не зроблені. Сенат і ФБР проводять розслідування. В цей час у Г'юза розвивається сильний синдром нав'язливого стану, яким він страждав ще в дитинстві.


Тривалість: 02:50:09
Якість: 1080p
Відео:
кодек:
розмір кадру: 1920 х 816
бітрейт: 12500 кб/с

Аудіо # 1:
мова: українська
переклад: багатоголосий закадровий
кодек: 2.0
бітрейт: 192 кб/с

Аудіо # 2:
мова: англійська
переклад: оригінал
кодек: 5.1
бітрейт: 1509 кб/с

Аудіо # 3:
мова: англійська
переклад: оригінал
кодек: 5.1
бітрейт: 640 кб/с

Субтитри:
мова: українська
тип: програмні (м'які)
формат: *.srt

Субтитри:
мова: англійська
тип: програмні (м'які)
формат: *.srt
Info
General
Unique ID : 318324859822689182712512420643735224201 (0xEF7B23512F6CB4EBD38C98DE224A3F89)
Complete name : /home/jack/Videos/My/The Aviator/The Aviator (2004) [Ukr,Eng] 1080p [Hurtom].
Format :
Format version : Version 4 / Version 2
File size : 17.6 GiB
Duration : 2h 50mn
Overall bit rate : 14.8 Mbps
Movie name : Release for HURTOM.COM
Encoded date : UTC 2017-04-24 17:25:40
Writing application : mkvmerge v11.0.0 ('Alive') 64bit
Writing library : libebml v1.3.4 + libmatroska v1.4.5
Attachments : aviator_550.jpg

Video
ID : 1
Format : AVC
Format/Info : Advanced Video Codec
Format profile : [email protected]
Format settings, CABAC : Yes
Format settings, ReFrames : 5 frames
Codec ID : V_MPEG4/ISO/AVC
Duration : 2h 50mn
Bit rate : 12.5 Mbps
Width : 1 920 pixels
Height : 816 pixels
Display aspect ratio : 2.35:1
Frame rate mode : Constant
Frame rate : 23.976 (24000/1001) fps
Color space : YUV
Chroma subsampling : 4:2:0
Bit depth : 8 bits
Scan type : Progressive
Bits/(Pixel*Frame) : 0.333
Stream size : 14.9 GiB (84%)
Title : AVC @ 12500 Kbps
Writing library : core 94 r1583 7608d73
Encoding settings : cabac=1 / ref=5 / deblock=1:-3:-3 / analyse=0x3:0x133 / me=umh / subme=10 / psy=1 / psy_rd=0.80:0.00 / mixed_ref=1 / me_range=32 / chroma_me=1 / trellis=2 / 8x8dct=1 / cqm=0 / deadzone=21,11 / fast_pskip=0 / chroma_qp_offset=-2 / threads=12 / sliced_threads=0 / nr=0 / decimate=0 / interlaced=0 / constrained_intra=0 / bframes=6 / b_pyramid=2 / b_adapt=2 / b_bias=0 / direct=3 / weightb=1 / weightp=2 / keyint=250 / keyint_min=25 / scenecut=40 / intra_refresh=0 / rc_lookahead=40 / rc=2pass / mbtree=1 / bitrate=12500 / ratetol=1.0 / qcomp=0.60 / qpmin=10 / qpmax=51 / qpstep=4 / cplxblur=20.0 / qblur=0.5 / ip_ratio=1.40 / aq=1:0.70
Language : English
Default : Yes
Forced : No

Audio #1
ID : 2
Format : AC-3
Format/Info : Audio Coding 3
Mode extension : CM (complete main)
Format settings, Endianness : Big
Codec ID : A_AC3
Duration : 2h 50mn
Bit rate mode : Constant
Bit rate : 192 Kbps
Channel(s) : 2 channels
Channel positions : Front: L R
Sampling rate : 48.0 KHz
Frame rate : 31.250 fps (1536 spf)
Compression mode : Lossy
Stream size : 234 MiB (1%)
Title : 2.0 @ 192 kbps
Language : Ukrainian
Default : Yes
Forced : No

Audio #2
ID : 3
Format :
Format/Info : Digital Theater Systems
Mode : 16
Format settings, Endianness : Big
Codec ID : A_DTS
Duration : 2h 50mn
Bit rate mode : Constant
Bit rate : 1 510 Kbps
Channel(s) : 6 channels
Channel positions : Front: L C R, Side: L R, LFE
Sampling rate : 48.0 KHz
Frame rate : 93.750 fps (512 spf)
Bit depth : 24 bits
Compression mode : Lossy
Stream size : 1.79 GiB (10%)
Title : 5.1 @ 1509 kbps
Language : English
Default : No
Forced : No

Audio #3
ID : 4
Format : AC-3
Format/Info : Audio Coding 3
Mode extension : CM (complete main)
Format settings, Endianness : Big
Codec ID : A_AC3
Duration : 2h 50mn
Bit rate mode : Constant
Bit rate : 640 Kbps
Channel(s) : 6 channels
Channel positions : Front: L C R, Side: L R, LFE
Sampling rate : 48.0 KHz
Frame rate : 31.250 fps (1536 spf)
Compression mode : Lossy
Stream size : 779 MiB (4%)
Title : 5.1 @ 640 Kbps
Language : English
Default : No
Forced : No

Text #1
ID : 5
Format : UTF-8
Codec ID : S_TEXT/UTF8
Codec ID/Info : UTF-8 Plain Text
Duration : 2h 43mn
Bit rate : 112 bps
Count of elements : 2079
Stream size : 134 KiB (0%)
Title : Full
Language : Ukrainian
Default : No
Forced : No

Text #2
ID : 6
Format : UTF-8
Codec ID : S_TEXT/UTF8
Codec ID/Info : UTF-8 Plain Text
Duration : 2h 42mn
Bit rate : 73 bps
Count of elements : 2326
Stream size : 87.3 KiB (0%)
Title : Full
Language : English
Default : No
Forced : No
Скріншоти




Джерело: &
Подяка Gelios, Sando7 та slavik_v_z за український звук та постер, ivan vyrvyvuho та wolesj за українські субтитри.

Особиста оцінка: 8 - мені сподобалося


Срібний реліз (на рейтинг впливає 50% завантаженого)
 Трекер:    Зареєстрований   

Завантажити / скачати фільм українською



відео для новачків



 Зареєстрований:   2017-04-25 15:08
 Розмір:   17.65 GB 
 Оцінка фільму:   9.6/10 (Голосів: 5)
   
Інші релізи
   Авіатор / The Aviator (2004) AVC Ukr/Eng | Sub Ukr/Eng igor911  10 / 0   3.26 GB   2017-04-24 12:36 
   Авіатор / The Aviator (2004) 720p Ukr/Eng | Sub Ukr/Eng/Multi igor911  6 / 1   7.05 GB   2017-04-24 00:52 
   Авіатор / The Aviator (2004) Gelios  18 / 0   2.18 GB   2017-04-23 22:34 
Ваш часовий пояс: GMT + 2 Години

Нова тема   Відповісти