Panivalkova - Донтворі (2017) [FLAC] | Indie Pop / Chamber Pop

Нові коментарі

Нова тема   Відповісти
Автор Повідомлення
kolpavel 
VIP


З нами з: 04.05.14
Востаннє: 22.09.17
Повідомлень: 1169

2017-04-24 20:18  
Panivalkova - Донтворі (2017) [FLAC] | Indie Pop / Chamber Pop

Panivalkova - Донтворі (2017) [FLAC] | Indie Pop / Chamber Pop


Стиль: Indie Pop Chamber Pop
Країна, місто: Україна, Київ
Сайти: Офіційний сайт
Видавець: Panivalkova
Виконавці:
Ірина Кульшенко – клавішні, вокал, укулеле, кастаньєти
Даша Пугачова – барабани, перкусія
Ірина Лузіна – клавішні, вокал, укулеле, перкусія

Пісні:
    01. Йоко-мантра - 04:37
    02. Let Me - 05:04
    03. Докучаю - 04:30
    04. Танго - 06:49
    05. Чужа - 04:13
    06. Истеричка - 06:15
    07. + - 01:31
    08. Автомен - 04:43
    09. Архітектор - 04:47
    10. Тотожна - 04:30
    11. I Will Meet You - 03:31

Тривалість: 00:49:12
Мова: українська, російська (5, 7), англійська (2, 11)
Аудіо-кодек: FLAC
Бітрейт: 723-963 кб/с
Джерело: трекер
Додаткова інформація:
EAC
Exact Audio Copy V1.1 from 23. June 2015

Отчёт EAC об извлечении, выполненном 19. апреля 2017, 22:45

Panivalkova / Донтворі

Дисковод: MATSHITADVD-RAM UJ8B0 Adapter: 1 ID: 0

Режим чтения : Достоверность
Использование точного потока : Да
Отключение кэша аудио : Да
Использование указателей C2 : Нет

Коррекция смещения при чтении : 102
Способность читать области Lead-in и Lead-out : Нет
Заполнение пропущенных сэмплов тишиной : Да
Удаление блоков с тишиной в начале и конце : Нет
При вычислениях CRC использовались нулевые сэмплы : Да
Интерфейс : Встроенный Win32-интерфейс для Win NT/2000
Обработка зазоров : Добавлено к предыдущему треку

Выходной формат : Пользовательский кодировщик
Выбранный битрейт : 896 kBit/s
Качество : Высокий
Добавление ID3-тега : Нет
Утилита сжатия : C:\Program Files (x86)\Exact Audio Copy\Alac\qaac_2.62\x64\refalac64.exe
Дополнительные параметры : -s --ignorelength --artist "%artist%" --title "%title%" --album "%albumtitle%" --date "%year%" --track "%tracknr%" --genre "%genre%" -o %dest% %source%

TOC извлечённого CD

Трек | Старт | Длительность | Начальный сектор | Конечный сектор
---------------------------------------------------------------------
1 | 0:00.00 | 4:36.70 | 0 | 20769
2 | 4:36.70 | 5:04.37 | 20770 | 43606
3 | 9:41.32 | 4:30.24 | 43607 | 63880
4 | 14:11.56 | 6:48.47 | 63881 | 94527
5 | 21:00.28 | 4:13.26 | 94528 | 113528
6 | 25:13.54 | 6:15.24 | 113529 | 141677
7 | 31:29.03 | 1:31.37 | 141678 | 148539
8 | 33:00.40 | 4:42.41 | 148540 | 169730
9 | 37:43.06 | 4:47.28 | 169731 | 191283
10 | 42:30.34 | 4:30.24 | 191284 | 211557
11 | 47:00.58 | 3:31.07 | 211558 | 227389

Трек 1

Имя файла G:\Maxim\Music\ALAC\Panivalkova\2017 — Донтворі\01. Йоко-мантра.wav

Длина предзазора 0:00:02.00

Пиковый уровень 99.1 %
Скорость извлечения 1.2 X
Качество трека 100.0 %
CRC теста 2FAF6F94
CRC копии 2FAF6F94
Трек не обнаружен в базе AccurateRip
Копирование... OK

Трек 2

Имя файла G:\Maxim\Music\ALAC\Panivalkova\2017 — Донтворі\02. Let Me.wav

Пиковый уровень 99.1 %
Скорость извлечения 1.4 X
Качество трека 100.0 %
CRC теста 1B877276
CRC копии 1B877276
Трек не обнаружен в базе AccurateRip
Копирование... OK

Трек 3

Имя файла G:\Maxim\Music\ALAC\Panivalkova\2017 — Донтворі\03. Докучаю.wav

Пиковый уровень 99.1 %
Скорость извлечения 1.5 X
Качество трека 100.0 %
CRC теста 9E62C22A
CRC копии 9E62C22A
Трек не обнаружен в базе AccurateRip
Копирование... OK

Трек 4

Имя файла G:\Maxim\Music\ALAC\Panivalkova\2017 — Донтворі\04. Танго.wav

Пиковый уровень 99.1 %
Скорость извлечения 1.7 X
Качество трека 100.0 %
CRC теста BE5F2717
CRC копии BE5F2717
Трек не обнаружен в базе AccurateRip
Копирование... OK

Трек 5

Имя файла G:\Maxim\Music\ALAC\Panivalkova\2017 — Донтворі\05. Чужа.wav

Пиковый уровень 99.1 %
Скорость извлечения 1.8 X
Качество трека 100.0 %
CRC теста EC5617BF
CRC копии EC5617BF
Трек не обнаружен в базе AccurateRip
Копирование... OK

Трек 6

Имя файла G:\Maxim\Music\ALAC\Panivalkova\2017 — Донтворі\06. Истеричка.wav

Пиковый уровень 99.1 %
Скорость извлечения 2.0 X
Качество трека 100.0 %
CRC теста 1329BBFC
CRC копии 1329BBFC
Трек не обнаружен в базе AccurateRip
Копирование... OK

Трек 7

Имя файла G:\Maxim\Music\ALAC\Panivalkova\2017 — Донтворі\07. +.wav

Пиковый уровень 99.1 %
Скорость извлечения 1.6 X
Качество трека 100.0 %
CRC теста 5E9AAF55
CRC копии 5E9AAF55
Трек не обнаружен в базе AccurateRip
Копирование... OK

Трек 8

Имя файла G:\Maxim\Music\ALAC\Panivalkova\2017 — Донтворі\08. Автомен.wav

Пиковый уровень 99.1 %
Скорость извлечения 1.8 X
Качество трека 99.9 %
CRC теста 74892689
CRC копии 74892689
Трек не обнаружен в базе AccurateRip
Копирование... OK

Трек 9

Имя файла G:\Maxim\Music\ALAC\Panivalkova\2017 — Донтворі\09. Архітектор.wav

Пиковый уровень 99.1 %
Скорость извлечения 2.1 X
Качество трека 100.0 %
CRC теста 480DA7DA
CRC копии 480DA7DA
Трек не обнаружен в базе AccurateRip
Копирование... OK

Трек 10

Имя файла G:\Maxim\Music\ALAC\Panivalkova\2017 — Донтворі\10. Тотожна.wav

Пиковый уровень 99.1 %
Скорость извлечения 2.2 X
Качество трека 100.0 %
CRC теста D52630B9
CRC копии D52630B9
Трек не обнаружен в базе AccurateRip
Копирование... OK

Трек 11

Имя файла G:\Maxim\Music\ALAC\Panivalkova\2017 — Донтворі\11. I Will Meet You.wav

Пиковый уровень 99.1 %
Скорость извлечения 2.2 X
Качество трека 100.0 %
CRC теста 7671E3D7
CRC копии 7671E3D7
Трек не обнаружен в базе AccurateRip
Копирование... OK

Ни одного трека нет в базе AccurateRip

Ошибок не произошло

Конец отчёта

==== Контрольная сумма отчёта 062425F8B9D19A557285FD0CC7F2062132F975314C149B1B8EE21C143BE8C9C9 ====
(.CUE)
REM GENRE "Pop, Indie Pop, Alternative"
REM DATE 2017
REM DISCID 9C0BD70B
REM COMMENT "ExactAudioCopy v1.1"
PERFORMER "Panivalkova"
TITLE "Донтворі"
FILE "01. Йоко-мантра.wav" WAVE
TRACK 01 AUDIO
TITLE "Йоко-мантра"
PERFORMER "Panivalkova"
INDEX 01 00:00:00
FILE "02. Let Me.wav" WAVE
TRACK 02 AUDIO
TITLE "Let Me"
PERFORMER "Panivalkova"
INDEX 01 00:00:00
FILE "03. Докучаю.wav" WAVE
TRACK 03 AUDIO
TITLE "Докучаю"
PERFORMER "Panivalkova"
INDEX 01 00:00:00
FILE "04. Танго.wav" WAVE
TRACK 04 AUDIO
TITLE "Танго"
PERFORMER "Panivalkova"
INDEX 01 00:00:00
FILE "05. Чужа.wav" WAVE
TRACK 05 AUDIO
TITLE "Чужа"
PERFORMER "Panivalkova"
INDEX 01 00:00:00
FILE "06. Истеричка.wav" WAVE
TRACK 06 AUDIO
TITLE "Истеричка"
PERFORMER "Panivalkova"
INDEX 01 00:00:00
FILE "07. +.wav" WAVE
TRACK 07 AUDIO
TITLE "+"
PERFORMER "Panivalkova"
INDEX 01 00:00:00
FILE "08. Автомен.wav" WAVE
TRACK 08 AUDIO
TITLE "Автомен"
PERFORMER "Panivalkova"
INDEX 01 00:00:00
FILE "09. Архітектор.wav" WAVE
TRACK 09 AUDIO
TITLE "Архітектор"
PERFORMER "Panivalkova"
INDEX 01 00:00:00
FILE "10. Тотожна.wav" WAVE
TRACK 10 AUDIO
TITLE "Тотожна"
PERFORMER "Panivalkova"
INDEX 01 00:00:00
FILE "11. I Will Meet You.wav" WAVE
TRACK 11 AUDIO
TITLE "I Will Meet You"
PERFORMER "Panivalkova"
INDEX 01 00:00:00
Лог перевiрки якостi
fooCDtect - foobar2000 + auCDtect, baralgin.

auCDtect: CD records authenticity detector, version 0.8.2
Copyright (c) 2004 Oleg Berngardt. All rights reserved.
Copyright (c) 2004 Alexander Djourik. All rights reserved.

mode: 0

===========================================
Track: Йоко-мантра
Quality: CDDA 100%
===========================================
Track: Let Me
Quality: CDDA 99%
===========================================
Track: Докучаю
Quality: CDDA 100%
===========================================
Track: Танго
Quality: CDDA 100%
===========================================
Track: Чужа
Quality: CDDA 100%
===========================================
Track: Истеричка
Quality: CDDA 99%
===========================================
Track: +
Quality: CDDA 100%
===========================================
Track: Автомен
Quality: CDDA 99%
===========================================
Track: Архітектор
Quality: CDDA 100%
===========================================
Track: Тотожна
Quality: CDDA 100%
===========================================
Track: I Will Meet You
Quality: CDDA 100%
===========================================


Якщо Ви справді бажаєте підтримати українське - після прослуховування, якщо музика вам сподобалась, придбайте ліцензійний диск. Підтримаймо вітчизняних виконавців!


Срібний реліз (на рейтинг впливає 50% завантаженого)
 Трекер:    Зареєстрований   

Завантажити / скачати українську музику



відео для новачків



 Зареєстрований:   2017-04-24 20:37
 Розмір:   302 MB 
 Оцінка музики:   10/10 (Голосів: 8)
   
hattori_hanzo 
Новенький


З нами з: 02.01.11
Востаннє: 17.09.17
Повідомлень: 13

2017-04-24 23:27  
у Вас помилка в році випуску, це альбом 2016-го...
kolpavel 
VIP


З нами з: 04.05.14
Востаннє: 22.09.17
Повідомлень: 1169

2017-04-26 17:25  
Колего, це CD 2017-го, в 2016 був тiльки WEB.
Ваш часовий пояс: GMT + 2 Години

Нова тема   Відповісти