Нащадки / The Descendants (2011) AVC Ukr/Eng | Sub 2xUkr/Eng

Нові коментарі

Нова тема   Відповісти
Автор Повідомлення
Anonymous 







2017-04-24 16:40  
Нащадки / The Descendants (2011) AVC Ukr/Eng | Sub 2xUkr/Eng



Жанр: драма
Країна: США

Оскар, 2 Золотих глобуса та премія каналу MTV
Основні нагороди - детальніше:


Оскар, 2012 рік
Переможець (1):
Найкращий адаптований сценарій



Золотий глобус, 2012 рік
Переможець (2):
Найкращий фільм (драма)
Найкраща чоловіча роль (драма) (Джордж Клуні)



Премія каналу MTV, 2012 рік
Переможець (1):
Прорив року (Шейлін Вудлі)


Кінокомпанія: Fox Searchlight Pictures, Ad Hominem Enterprises, Dune Entertainment
Режисер: Александер Пейн / Alexander Payne
Актори: Джордж Клуні / George Clooney, Шейлін Вудлі / Shailene Woodley, Бо Бріджес / Beau Bridges, Джуді Ґрір / Judy Greer, Роберт Форстер / Robert Forster, Меттью Ліллард / Matthew Lillard, Амара Міллер / Amara Miller, Нік Краузе / Nick Krause, Патрісія Гасті / Patricia Hastie, Селія Кенні / Celia Kenney та інші

Сюжет:
Мет Кінг (Джордж Клуні) - багатий гавайський землевласник. Його життя пекельне: кохана дружина в комі, відносини з дочками кепські, кредитори вимагають продати землю. На додачу він дізнається, що останні кілька років дружина зраджувала йому... Мет разом з двома доньками робить спробу знайти коханця дружини, щиро вірячи, що таким чином врятує сім'ю.


Тривалість: 01:55:00
Якість: AVC
Відео:
кодек:
розмір кадру: 1104 x 458
бітрейт: 2726 кб/с

Аудіо # 1:
мова: українська
переклад: багатоголосий закадровий
кодек: 2.0
бітрейт: 192 кб/с

Аудіо # 2:
мова: англійська
переклад: оригінал
кодек: 5.1
бітрейт: 448 кб/с

Субтитри # 1-2:
мова: українська (форсовані, повні)
тип: програмні (м'які)
формат: *.srt
примітка: виправлення неправильно розпізнаних літер та редагування - igor911

Субтитри # 3:
мова: українська
тип: програмні (м'які)
формат: *.srt
примітка: переклад з англійської MarianB

Субтитри # 4-5:
мова: англійська (повні, SDH)
тип: програмні (м'які)
формат: *.srt

Збережено оригінальні розділи, як на Blu-ray
Info та log
Код:
Complete name               : The Descendants (2011) [Ukr,Eng sub.2xUkr,Eng] AVC [Hurtom].
Format                      :
Format version              : Version 4 / Version 2
File size                   : 2.71 GiB
Duration                    : 1 h 55 min
Overall bit rate            : 3 368 kb/s
Movie name                  : Нащадки / The Descendants (2011) [Ukr,Eng sub.2xUkr,Eng] AVC [Hurtom]
Released date               : 2011
Writing library             : libebml v1.3.4 + libmatroska v1.4.5
Cover                       : Yes
Comment                     : http://www.imdb.com/title/tt1033575/
Attachments                 : cover.jpg
ARTIST                      : Джордж Клуні / George Clooney, Шейлін Вудлі / Shailene Woodley, Бо Бріджес / Beau Bridges, Джуді Ґрір / Judy Greer, Роберт Форстер / Robert Forster, Меттью Ліллард / Matthew Lillard, Амара Міллер / Amara Miller, Нік Краузе / Nick Krause, Патрісія Гасті / Patricia Hastie, Селія Кенні / Celia Kenney та інші
DIRECTOR                    : Александер Пейн / Alexander Payne
GENRE                       : драма
SYNOPSIS                    : Мет Кінг (Джордж Клуні) - багатий гавайський землевласник. Його життя пекельне: кохана дружина в комі, відносини з дочками кепські, кредитори вимагають продати землю. На додачу він дізнається, що останні кілька років дружина зраджувала йому... Мет разом з двома доньками робить спробу знайти коханця дружини, щиро вірячи, що таким чином врятує сім'ю...
Url                         : https://toloka.to/t81539

Video
ID                          : 1
Format                      : AVC
Format/Info                 : Advanced Video Codec
Format profile              : [email protected]
Format settings, CABAC      : Yes
Format settings, ReFrames   : 12 frames
Codec ID                    : V_MPEG4/ISO/AVC
Duration                    : 1 h 55 min
Bit rate                    : 2 726 kb/s
Width                       : 1 104 pixels
Height                      : 458 pixels
Display aspect ratio        : 2.40:1
Frame rate mode             : Constant
Frame rate                  : 23.976 (24000/1001) FPS
Color space                 : YUV
Chroma subsampling          : 4:2:0
Bit depth                   : 8 bits
Scan type                   : Progressive
Bits/(Pixel*Frame)          : 0.225
Stream size                 : 2.19 GiB (81%)
Title                       : Нащадки / The Descendants (2011) AVC
Writing library             : core 122 r2183 c522ad1
Encoding settings           : cabac=1 / ref=12 / deblock=1:-3:-2 / analyse=0x3:0x113 / me=umh / subme=10 / psy=1 / psy_rd=1.10:0.05 / mixed_ref=1 / me_range=32 / chroma_me=1 / trellis=2 / 8x8dct=1 / cqm=0 / deadzone=21,11 / fast_pskip=0 / chroma_qp_offset=-3 / threads=6 / sliced_threads=0 / nr=0 / decimate=0 / interlaced=0 / bluray_compat=0 / constrained_intra=0 / bframes=10 / b_pyramid=2 / b_adapt=2 / b_bias=0 / direct=3 / weightb=1 / open_gop=0 / weightp=2 / keyint=250 / keyint_min=23 / scenecut=40 / intra_refresh=0 / rc_lookahead=60 / rc=2pass / mbtree=0 / bitrate=2726 / ratetol=1.0 / qcomp=0.60 / qpmin=0 / qpmax=69 / qpstep=4 / cplxblur=20.0 / qblur=0.5 / vbv_maxrate=25000 / vbv_bufsize=31250 / nal_hrd=none / ip_ratio=1.40 / pb_ratio=1.30 / aq=2:0.80
Language                    : English
Default                     : Yes
Forced                      : No
Color range                 : Limited
Matrix coefficients         : BT.709

Audio #1
ID                          : 2
Format                      : AC-3
Format/Info                 : Audio Coding 3
Format settings, Endianness : Big
Codec ID                    : A_AC3
Duration                    : 1 h 55 min
Bit rate mode               : Constant
Bit rate                    : 192 kb/s
Channel(s)                  : 2 channels
Channel positions           : Front: L R
Sampling rate               : 48.0 kHz
Frame rate                  : 31.250 FPS (1536 spf)
Bit depth                   : 16 bits
Compression mode            : Lossy
Stream size                 : 158 MiB (6%)
Title                       : MVO [1+1] 2.0 192 Kbps [Hurtom-Gelios, Sando7, slavik_v_z]
Language                    : Ukrainian
Service kind                : Complete Main
Default                     : Yes
Forced                      : Yes

Audio #2
ID                          : 3
Format                      : AC-3
Format/Info                 : Audio Coding 3
Format settings, Endianness : Big
Codec ID                    : A_AC3
Duration                    : 1 h 55 min
Bit rate mode               : Constant
Bit rate                    : 448 kb/s
Channel(s)                  : 6 channels
Channel positions           : Front: L C R, Side: L R, LFE
Sampling rate               : 48.0 kHz
Frame rate                  : 31.250 FPS (1536 spf)
Bit depth                   : 16 bits
Compression mode            : Lossy
Stream size                 : 369 MiB (13%)
Title                       : Original, 5.1 448 Kbps
Language                    : English
Service kind                : Complete Main
Default                     : No
Forced                      : No

Text #1
ID                          : 4
Format                      : UTF-8
Codec ID                    : S_TEXT/UTF8
Codec ID/Info               : UTF-8 Plain Text
Duration                    : 1 h 17 min
Bit rate                    : 0 b/s
Count of elements           : 10
Stream size                 : 526 Bytes (0%)
Title                       : Ukr Forced
Language                    : Ukrainian
Default                     : Yes
Forced                      : Yes

Text #2
ID                          : 5
Format                      : UTF-8
Codec ID                    : S_TEXT/UTF8
Codec ID/Info               : UTF-8 Plain Text
Duration                    : 1 h 53 min
Bit rate                    : 98 b/s
Count of elements           : 1331
Stream size                 : 81.7 KiB (0%)
Title                       : Ukr full [Blu-Ray CEE, Hurtom-igor911]
Language                    : Ukrainian
Default                     : No
Forced                      : No

Text #3
ID                          : 6
Format                      : UTF-8
Codec ID                    : S_TEXT/UTF8
Codec ID/Info               : UTF-8 Plain Text
Duration                    : 1 h 53 min
Bit rate                    : 92 b/s
Count of elements           : 1286
Stream size                 : 77.1 KiB (0%)
Title                       : Ukr full [Hurtom-MarianB]
Language                    : Ukrainian
Default                     : No
Forced                      : No

Text #4
ID                          : 7
Format                      : UTF-8
Codec ID                    : S_TEXT/UTF8
Codec ID/Info               : UTF-8 Plain Text
Duration                    : 1 h 53 min
Bit rate                    : 64 b/s
Count of elements           : 1365
Stream size                 : 53.6 KiB (0%)
Title                       : Eng full
Language                    : English
Default                     : No
Forced                      : No

Text #5
ID                          : 8
Format                      : UTF-8
Codec ID                    : S_TEXT/UTF8
Codec ID/Info               : UTF-8 Plain Text
Duration                    : 1 h 54 min
Bit rate                    : 66 b/s
Count of elements           : 1437
Stream size                 : 55.9 KiB (0%)
Title                       : Eng SDH
Language                    : English
Default                     : No
Forced                      : No

Menu
00:00:00.000                : en:00:00:00.000
00:03:18.990                : en:00:03:18.990
00:06:58.668                : en:00:06:58.668
00:09:09.174                : en:00:09:09.174
00:10:27.877                : en:00:10:27.877
00:14:22.862                : en:00:14:22.862
00:18:03.374                : en:00:18:03.374
00:22:42.444                : en:00:22:42.444
00:26:00.517                : en:00:26:00.517
00:29:37.859                : en:00:29:37.859
00:34:20.975                : en:00:34:20.975
00:36:06.206                : en:00:36:06.206
00:40:00.148                : en:00:40:00.148
00:44:42.680                : en:00:44:42.680
00:47:07.741                : en:00:47:07.741
00:49:18.414                : en:00:49:18.414
00:51:45.769                : en:00:51:45.769
00:53:39.132                : en:00:53:39.132
01:00:01.097                : en:01:00:01.097
01:07:46.646                : en:01:07:46.646
01:12:47.196                : en:01:12:47.196
01:18:39.631                : en:01:18:39.631
01:22:30.320                : en:01:22:30.320
01:25:40.301                : en:01:25:40.301
01:26:38.610                : en:01:26:38.610
01:28:32.682                : en:01:28:32.682
01:31:41.829                : en:01:31:41.829
01:34:30.373                : en:01:34:30.373
01:38:17.349                : en:01:38:17.349
01:43:14.938                : en:01:43:14.938
01:45:42.627                : en:01:45:42.627
01:48:03.643                : en:01:48:03.643

Код:
[info]: frame I:1035  Avg QP:17.57  size: 95217
[info]: frame P:31560 Avg QP:20.79  size: 26899
[info]: frame B:132861 Avg QP:21.73  size: 10562
[info]: consecutive B-frames:  1.1%  3.8%  2.3%  9.7% 11.3% 56.1%  7.0%  2.1%  2.5%  2.1%  1.9%
[info]: mb I  I16..4:  5.5% 77.0% 17.5%
[info]: mb P  I16..4:  0.3%  6.2%  0.7%  P16..4: 41.1% 28.4% 18.9%  0.0%  0.0%    skip: 4.3%
[info]: mb B  I16..4:  0.0%  0.4%  0.1%  B16..8: 41.5% 11.7%  4.3%  direct: 7.8%  skip:34.2%  L0:44.3% L1:42.6% BI:13.1%
[info]: 8x8 transform intra:82.4% inter:57.0%
[info]: direct mvs  spatial:99.5% temporal:0.5%
[info]: coded y,uvDC,uvAC intra: 95.5% 89.3% 73.2% inter: 33.4% 25.4% 10.4%
[info]: i16 v,h,dc,p: 42% 12% 17% 30%
[info]: i8 v,h,dc,ddl,ddr,vr,hd,vl,hu: 10% 10%  9%  9% 13% 12% 13% 10% 13%
[info]: i4 v,h,dc,ddl,ddr,vr,hd,vl,hu: 10%  8%  4%  9% 15% 14% 15% 11% 14%
[info]: i8c dc,h,v,p: 47% 21% 17% 15%
[info]: Weighted P-Frames: Y:4.2% UV:1.7%
[info]: ref P L0: 46.4% 10.9% 14.8%  7.0%  5.3%  4.2%  3.5%  2.1%  1.8%  1.5%  1.3%  1.1%  0.0%  0.0%
[info]: ref B L0: 65.8% 14.0%  6.8%  3.7%  2.8%  2.2%  1.8%  1.1%  0.9%  0.5%  0.2%
[info]: ref B L1: 92.4%  7.6%
[info]: kb/s:2725.19
Ще скріншоти:


Джерело: &
Подяка Sando7, slavik_v_z, Gelios'у за український звук та постер, MarianB за українські субтитри #3.


 Трекер:    Зареєстрований   

Завантажити / скачати фільм українською



відео для новачків



 Зареєстрований:   2017-04-25 01:03
 Розмір:   2.71 GB 
 Оцінка фільму:   3.8/10 (Голосів: 18)
   
Інші релізи
   Нащадки / The Descendants (2011) 1080p Ukr/Eng | Sub 2xUkr/Eng/Fre/Spa igor911  3 / 0   13.01 GB   2017-04-25 17:58 
   Нащадки / The Descendants (2011) 720p Ukr/Eng | Sub 2xUkr/Eng igor911  3 / 0   6 GB   2017-04-24 23:17 
   Нащадки / The Descendants (2011) Gelios  14 / 0   1.45 GB   2017-04-24 14:26 
   Нащадки / The Descendants (2011) Eng | Sub Ukr/Eng Mirqn  1 / 0   1.68 GB   2012-04-27 19:15 
_Alex_UA 
Свій


З нами з: 18.07.12
Востаннє: 27.05.17
Повідомлень: 130

2017-04-30 09:49  
оцінки фільму не вражають. хто уже дивився, напишіть, щоб не витрачати час даремно.
Ваш часовий пояс: GMT + 2 Години

Нова тема   Відповісти