Авіатор / The Aviator (2004) AVC Ukr/Eng | Sub Ukr/Eng

Нові коментарі

Нова тема   Відповісти
Автор Повідомлення
Anonymous 







2017-04-24 09:46  
Авіатор / The Aviator (2004) AVC Ukr/Eng | Sub Ukr/Eng



Жанр: біографічний, драма, історичний
Країна: Німеччина, США

5 Оскарів, 3 Золотих глобуса, 4 премії BAFTA, премії Гільдії акторів та MTV
Основні нагороди - детальніше:


Оскар, 2005 рік
Переможець (5):
Найкраща жіноча другорядна роль (Кейт Бланшет)
Найкраща операторська робота
Найкраща робота художника-постановника
Найкращий дизайн костюмів
Найкращий монтаж



Золотий глобус, 2005 рік
Переможець (3):
Найкращий фільм (драма)
Найкраща чоловіча роль (драма) (Леонардо ДіКапріо)
Найкращий саундтрек


Авіатор / The Aviator (2004) AVC Ukr/Eng | Sub Ukr/Eng
Британська академія кіно та телевізійного мистецтва, 2005 рік
Переможець (4):
Найкращий фільм
Найкраща жіноча другорядна роль (Кейт Бланшет)
Найкращий грим/зачіски
Найкраща робота художника-постановника



Премія Гільдії акторів, 2005 рік
Переможець (1):
Найкраща жіноча другорядна роль (Кейт Бланшет)



Премія каналу MTV, 2005 рік
Переможець (1):
Найкраща чоловіча роль (Леонардо ДіКапріо)


Кінокомпанія: Forward Pass, Appian Way, IMF Internationale Medien und Film GmbH & Co. 3. Produktions KG, Initial Entertainment Group (IEG), Warner Bros., Miramax, Cappa Productions, MELS, Mel's Cite du Cinema
Режисер: Мартін Скорсезе / Martin Scorsese
Актори: Леонардо ДіКапріо / Leonardo DiCaprio, Кейт Бланшет / Cate Blanchett, Кейт Бекінсейл / Kate Beckinsale, Джон Сі Райлі / John C. Reilly, Алек Болдвін / Alec Baldwin, Алан Алда / Alan Alda, Іен Голм / Ian Holm, Денні Г'юстон / Danny Huston, Ґвен Стефані / Gwen Stefani, Джуд Лоу / Jude Law та інші

Сюжет:
Отримавши від батька невелику фабрику, Говард Г'юз перетворив її на гігантське, фантастично прибуткове підприємство. Ставши власником величезної кінокомпанії, він зняв найдорожчий для свого часу фільм і підкорив серця чарівних голлівудських актрис. Йому належали найпрестижніші казино Лас-Веґаса і він встановив рекорд швидкісних польотів, придбав другу за величиною комерційну авіакомпанію... Гроші палять серце Г'юза, вони не дають йому спокою, а душа його рветься вгору. Тільки там, на висоті кількох тисяч метрів він по-справжньому щасливий. Тільки там, де все вирішує лише майстерність пілота і Бог, ніщо не цінується так дорого, як вірність і честь.

Рейтинг MPAA: PG-13 - дітям до 13 років перегляд не бажаний
Вікова категорія: 12+
Тривалість: 02:50:09
Якість: AVC
Відео:
кодек:
розмір кадру: 1080 х 460
бітрейт: 2100 кб/с
примітка: Фільм було відзнято на сучасну кольорову плівку і пізніше піддано цифровій обробці в програмі Adobe After Effects. Для цього спільно з фахівцями компанії Technicolor були розроблені так звані "цифрові фільтри" - червоні і зелені для сцен, дія яких відбувається до 1938 року, ті ж плюс блакитний - для пізніших епізодів. Ближче до фіналу колірна палітра міняється знову, вже на більш звичну для сучасного глядача.

Аудіо # 1:
мова: українська
переклад: багатоголосий закадровий
кодек: 2.0
бітрейт: 192 кб/с

Аудіо # 2:
мова: англійська
переклад: оригінал
кодек: 5.1
бітрейт: 448 кб/с

Субтитри # 1:
мова: українська
тип: програмні (м'які)
формат: *.srt
переклад: з англійської ivan vyrvyvuho та wolesj

Субтитри # 2:
мова: англійська
тип: програмні (м'які)
формат: *.srt

Збережено оригінальні розділи, як на Blu-ray
Info та log
Код:
Complete name               : The Aviator (2004) [Ukr,Eng sub.Ukr,Eng] AVC [Hurtom].
Format                      :
Format version              : Version 4 / Version 2
File size                   : 3.26 GiB
Duration                    : 2 h 50 min
Overall bit rate            : 2 743 kb/s
Movie name                  : Авіатор / The Aviator (2004) [Ukr,Eng sub.Ukr,Eng] AVC [Hurtom]
Released date               : 2004
Writing library             : libebml v1.3.4 + libmatroska v1.4.5
Cover                       : Yes
Comment                     : http://www.imdb.com/title/tt0338751/
Attachments                 : cover.jpg
ARTIST                      : Леонардо ДіКапріо / Leonardo DiCaprio, Кейт Бланшет / Cate Blanchett, Кейт Бекінсейл / Kate Beckinsale, Джон Сі Райлі / John C. Reilly, Алек Болдвін / Alec Baldwin, Алан Алда / Alan Alda, Іен Голм / Ian Holm, Денні Г'юстон / Danny Huston, Ґвен Стефані / Gwen Stefani, Джуд Лоу / Jude Law та інші
DIRECTOR                    : Мартін Скорсезе / Martin Scorsese
GENRE                       : біографічний, драма, історичний
SYNOPSIS                    : Отримавши від батька невелику фабрику, Говард Г'юз перетворив її на гігантське, фантастично прибуткове підприємство. Ставши власником величезної кінокомпанії, він зняв найдорожчий для свого часу фільм і підкорив серця чарівних голлівудських актрис. Йому належали найпрестижніші казино Лас-Веґаса і він встановив рекорд швидкісних польотів, придбав другу за величиною комерційну авіакомпанію... Гроші палять серце Г'юза, вони не дають йому спокою, а душа його рветься вгору. Тільки там, на висоті кількох тисяч метрів він по-справжньому щасливий. Тільки там, де все вирішує лише майстерність пілота і Бог, ніщо не цінується так дорого, як вірність і честь.
Url                         : https://toloka.to/t81534

Video
ID                          : 1
Format                      : AVC
Format/Info                 : Advanced Video Codec
Format profile              : [email protected]
Format settings, CABAC      : Yes
Format settings, ReFrames   : 16 frames
Codec ID                    : V_MPEG4/ISO/AVC
Duration                    : 2 h 50 min
Bit rate                    : 2 100 kb/s
Width                       : 1 080 pixels
Height                      : 460 pixels
Display aspect ratio        : 2.35:1
Frame rate mode             : Constant
Frame rate                  : 23.976 (24000/1001) FPS
Color space                 : YUV
Chroma subsampling          : 4:2:0
Bit depth                   : 8 bits
Scan type                   : Progressive
Bits/(Pixel*Frame)          : 0.176
Stream size                 : 2.50 GiB (77%)
Title                       : Авіатор / The Aviator (2004) AVC
Writing library             : core 125 r2200 999b753
Encoding settings           : cabac=1 / ref=16 / deblock=1:-2:-1 / analyse=0x3:0x133 / me=umh / subme=10 / psy=1 / psy_rd=1.00:0.10 / mixed_ref=1 / me_range=24 / chroma_me=1 / trellis=2 / 8x8dct=1 / cqm=0 / deadzone=21,11 / fast_pskip=1 / chroma_qp_offset=-3 / threads=3 / lookahead_threads=1 / sliced_threads=0 / nr=0 / decimate=1 / interlaced=0 / bluray_compat=0 / constrained_intra=0 / bframes=8 / b_pyramid=0 / b_adapt=2 / b_bias=0 / direct=3 / weightb=1 / open_gop=0 / weightp=2 / keyint=240 / keyint_min=23 / scenecut=40 / intra_refresh=0 / rc_lookahead=60 / rc=2pass / mbtree=1 / bitrate=2100 / ratetol=1.0 / qcomp=0.60 / qpmin=10 / qpmax=51 / qpstep=4 / cplxblur=20.0 / qblur=0.5 / vbv_maxrate=50000 / vbv_bufsize=50000 / nal_hrd=none / ip_ratio=1.40 / aq=1:1.00
Language                    : English
Default                     : Yes
Forced                      : No

Audio #1
ID                          : 2
Format                      : AC-3
Format/Info                 : Audio Coding 3
Format settings, Endianness : Big
Codec ID                    : A_AC3
Duration                    : 2 h 50 min
Bit rate mode               : Constant
Bit rate                    : 192 kb/s
Channel(s)                  : 2 channels
Channel positions           : Front: L R
Sampling rate               : 48.0 kHz
Frame rate                  : 31.250 FPS (1536 spf)
Bit depth                   : 16 bits
Compression mode            : Lossy
Stream size                 : 234 MiB (7%)
Title                       : MVO [Volya CINE+ HIT HD] 2.0 192 Kbps [Hurtom-Gelios, Sando7, slavik_v_z]
Language                    : Ukrainian
Service kind                : Complete Main
Default                     : Yes
Forced                      : Yes

Audio #2
ID                          : 3
Format                      : AC-3
Format/Info                 : Audio Coding 3
Format settings, Endianness : Big
Codec ID                    : A_AC3
Duration                    : 2 h 50 min
Bit rate mode               : Constant
Bit rate                    : 448 kb/s
Channel(s)                  : 6 channels
Channel positions           : Front: L C R, Side: L R, LFE
Sampling rate               : 48.0 kHz
Frame rate                  : 31.250 FPS (1536 spf)
Bit depth                   : 16 bits
Compression mode            : Lossy
Stream size                 : 545 MiB (16%)
Title                       : Original, 5.1 448 Kbps
Language                    : English
Service kind                : Complete Main
Default                     : No
Forced                      : No

Text #1
ID                          : 4
Format                      : UTF-8
Codec ID                    : S_TEXT/UTF8
Codec ID/Info               : UTF-8 Plain Text
Duration                    : 2 h 43 min
Bit rate                    : 112 b/s
Count of elements           : 2079
Stream size                 : 134 KiB (0%)
Title                       : Ukr full [Hurtom-ivan vyrvyvuho, wolesj]
Language                    : Ukrainian
Default                     : No
Forced                      : No

Text #2
ID                          : 5
Format                      : UTF-8
Codec ID                    : S_TEXT/UTF8
Codec ID/Info               : UTF-8 Plain Text
Duration                    : 2 h 42 min
Bit rate                    : 73 b/s
Count of elements           : 2326
Stream size                 : 87.3 KiB (0%)
Title                       : Eng full
Language                    : English
Default                     : No
Forced                      : No

Menu
00:00:00.000                : :1. Young Howard
00:02:19.514                : :2. "Welcome to Hollywood," Hell's Angels Year One
00:10:35.927                : :3. Hell's Angels Year Two
00:17:34.053                : :4. Hell's Angels Year Three
00:21:38.380                : :5. "Howard Hughes' $4 Million Epic"
00:26:43.602                : :6. "Follow-Through Is Everything in Golf, Just Like Life"
00:30:21.862                : :7. TWA... "Tiger by the Tail"
00:32:40.333                : :8. "I'm Sure You Know Errol"
00:37:11.813                : :9. Teaching Kate to Fly
00:42:07.525                : :10. H-1 Racer, Breaking the World Speed Record
00:47:28.763                : :11. Letting Kate In
00:52:42.034                : :12. Around the World in Four Days
00:54:13.917                : :13. "Don't Worry About It Howard, She's Just Working the Room"
00:57:57.683                : :14. Visiting the Hepburn Estate
01:03:28.638                : :15. MPAA Outlaws Mammaries
01:08:11.921                : :16. Selling The Hercules
01:09:19.113                : :17. "There's Too Much Howard Hughes in Howard Hughes"
01:12:37.812                : :18. The Constellation
01:15:58.220                : :19. "We're Too Alike, You and I"
01:21:13.619                : :20. Faith Domergue
01:29:43.378                : :21. "Kill the Story," Burying the Hepburn-Tracy Scandal
01:32:45.727                : :22. Ava Gardner
01:35:43.780                : :23. "Show Me All the Blueprints, Show Me All the Blueprints"
01:41:16.487                : :24. XP-11, Inaugural Flight and Crash
01:47:44.208                : :25. Flowers From Juan Trippe
01:52:08.680                : :26. Government Investigation
02:03:19.392                : :27. Q-U-A-R-A-N-T-I-N-E
02:17:20.607                : :28. The Germ-Free Zone
02:21:54.715                : :29. Brewster Senate Hearings
02:29:49.981                : :30. The Flying Boat
02:39:32.396                : :31. "The Way of the Future, the Way of the Future"
02:43:35.806                : :32. End Credits


Код:
avs [info]: 1080x460p 1:1 @ 24000/1001 fps (cfr)
[info]: using SAR=1/1
[info]: using cpu capabilities: MMX2 SSE2Fast SSSE3 FastShuffle Cache64
[info]: profile High, level 4.1
[info]: frame I:2176 Avg QP:19.20 size: 65554
[info]: frame P:82112 Avg QP:20.44 size: 20514
[info]: frame B:160488 Avg QP:23.54 size: 5318
[info]: consecutive B-frames: 3.0% 15.9% 54.6% 9.3% 8.1% 4.2% 2.8% 0.9% 1.2%
[info]: mb I I16..4: 13.0% 69.7% 17.3%
[info]: mb P I16..4: 1.4% 7.3% 1.1% P16..4: 42.2% 19.6% 15.9% 1.1% 0.3% skip:11.2%
[info]: mb B I16..4: 0.1% 0.8% 0.1% B16..8: 35.7% 6.8% 1.9% direct: 4.9% skip:49.8% L0:41.1% L1:46.5% BI:12.4%
[info]: 8x8 transform intra:74.1% inter:65.0%
[info]: direct mvs spatial:87.6% temporal:12.4%
[info]: coded y,uvDC,uvAC intra: 80.3% 81.5% 62.7% inter: 20.4% 24.7% 11.4%
[info]: i16 v,h,dc,p: 50% 14% 8% 28%
[info]: i8 v,h,dc,ddl,ddr,vr,hd,vl,hu: 9% 10% 6% 10% 14% 14% 13% 12% 12%
[info]: i4 v,h,dc,ddl,ddr,vr,hd,vl,hu: 11% 9% 4% 9% 15% 14% 14% 11% 13%
[info]: i8c dc,h,v,p: 47% 19% 17% 17%
[info]: Weighted P-Frames: Y:5.9% UV:3.2%
[info]: ref P L0: 53.2% 12.7% 12.4% 5.4% 3.9% 2.9% 2.3% 1.3% 1.1% 1.0% 0.8% 0.8% 0.7% 0.6% 0.5% 0.4%
[info]: ref B L0: 78.2% 8.0% 4.6% 2.2% 1.6% 1.3% 1.0% 0.6% 0.5% 0.4% 0.4% 0.3% 0.3% 0.3% 0.3%
[info]: kb/s:2100.52
encoded 244776 frames, 1.99 fps, 2100.52 kb/s


Джерело: &
Подяка Gelios'у, Sando7 та slavik_v_z за український звук та постер, ivan vyrvyvuho та wolesj за українські субтитри.


Срібний реліз (на рейтинг впливає 50% завантаженого)
 Трекер:    Зареєстрований   

Завантажити / скачати фільм українською



відео для новачків



 Зареєстрований:   2017-04-24 12:36
 Розмір:   3.26 GB 
 Оцінка фільму:   6.1/10 (Голосів: 25)
   
Інші релізи
   Авіатор / The Aviator (2004) 1080p Ukr/Eng | Sub Ukr/Eng Argentum  4 / 0   17.65 GB   2017-04-25 15:08 
   Авіатор / The Aviator (2004) 720p Ukr/Eng | Sub Ukr/Eng/Multi igor911  6 / 0   7.05 GB   2017-04-24 00:52 
   Авіатор / The Aviator (2004) Gelios  16 / 0   2.18 GB   2017-04-23 22:34 
Ваш часовий пояс: GMT + 2 Години

Нова тема   Відповісти