The Maneken - Sale% (2017) [FLAC] | Pop / Electronica / Indie

Нові коментарі

Нова тема   Відповісти
Автор Повідомлення
kolpavel 
VIP


З нами з: 04.05.14
Востаннє: 23.08.17
Повідомлень: 1155

2017-04-22 16:19  
The Maneken - Sale% (2017) [FLAC] | Pop / Electronica / Indie

The Maneken - Sale% (2017) [FLAC] | Pop / Electronica / Indie


Стиль: Pop Electronica Indie
Країна, місто: Україна, Київ
Сайти: Офіційний сайт
Видавець: Vidlik Records
Виконавці:
Євген Філатов – вокал, перкусія, клавішні та сесійні музиканти -

Макс Шевченко – гітара, бек-вокал
Олексій Гливінський – ударні
Денис Марінкін – ударні
Андрій Гагауз – бас-гітара
Олександр Чунін – бас-гітара
Сергій Єременко – клавішні, гітара
Пісні:

    01. Networked Life (04:12)
    02. Pray for the Prey (feat. Nicole K) (03:22)
    03. Mary (03:49)
    04. Overloved (03:19)
    05. Dancing (03:12)
    06. You & I (04:15)
    07. It Makes Me Feel So Right (feat. Essami a.k.a. Gaitana) (06:42)
    08. Go! (03:44)
    09. Interlude (06:45)
    10. Lucky One (feat. Sophie Villy) (04:05)
    11. Receiver (feat. ONUKA) (05:12)
    12. Impulse (05:43)
    13. The Recipe (04:54)
    14. 100% (03:22)


Тривалість: 01:01:48
Мова: англiйська
Аудіо-кодек: FLAC
Бітрейт: 232-1003 кб/с
Джерело: Fraps25
Додаткова інформація:
CUE
REM GENRE "Indie-Pop, Electronic, Funk"
REM DATE 2017
REM DISCID D70E7C0E
PERFORMER "The Maneken"
TITLE "Sale%"
FILE "01. Networked Life.wav" WAVE
TRACK 01 AUDIO
TITLE "Networked Life"
PERFORMER "The Maneken"
INDEX 01 00:00:00
FILE "02. Pray for the Prey.wav" WAVE
TRACK 02 AUDIO
TITLE "Pray for the Prey"
PERFORMER "The Maneken & Nicole K"
INDEX 01 00:00:00
FILE "03. Mary.wav" WAVE
TRACK 03 AUDIO
TITLE "Mary"
PERFORMER "The Maneken"
INDEX 01 00:00:00
FILE "04. Overloved.wav" WAVE
TRACK 04 AUDIO
TITLE "Overloved"
PERFORMER "The Maneken"
INDEX 01 00:00:00
FILE "05. Dancing.wav" WAVE
TRACK 05 AUDIO
TITLE "Dancing"
PERFORMER "The Maneken"
INDEX 01 00:00:00
FILE "06. You & I.wav" WAVE
TRACK 06 AUDIO
TITLE "You & I"
PERFORMER "The Maneken"
INDEX 01 00:00:00
FILE "07. It Makes Me Feel So Right.wav" WAVE
TRACK 07 AUDIO
TITLE "It Makes Me Feel So Right"
PERFORMER "The Maneken & Essami"
INDEX 01 00:00:00
FILE "08. Go!.wav" WAVE
TRACK 08 AUDIO
TITLE "Go!"
PERFORMER "The Maneken & Brunettes Shoot Blondes"
INDEX 01 00:00:00
FILE "09. Interlude.wav" WAVE
TRACK 09 AUDIO
TITLE "Interlude"
PERFORMER "The Maneken"
INDEX 01 00:00:00
FILE "10. Lucky One.wav" WAVE
TRACK 10 AUDIO
TITLE "Lucky One"
PERFORMER "The Maneken & Sophie Villy"
INDEX 01 00:00:00
FILE "11. Receiver.wav" WAVE
TRACK 11 AUDIO
TITLE "Receiver "
PERFORMER "The Maneken & Onuka"
INDEX 01 00:00:00
FILE "12. Impulse.wav" WAVE
TRACK 12 AUDIO
TITLE "Impulse"
PERFORMER "The Maneken"
INDEX 01 00:00:00
FILE "13. The Recipe.wav" WAVE
TRACK 13 AUDIO
TITLE "The Recipe"
PERFORMER "The Maneken"
INDEX 01 00:00:00
FILE "14. 100%.wav" WAVE
TRACK 14 AUDIO
TITLE "100%"
PERFORMER "The Maneken"
INDEX 01 00:00:00
auCDtect
CUE Corrector v. 8.2.4 / b. 742 (Feb. 16, 2017)
————————————————————————————————————————————————————————————————————————
The Maneken / Sale%

Folder: The Maneken - 2017 - Sale%
Audio files:
01. Networked Life.ape [04:12.227; APE • 885 kbps • 16 bit \ 44100 Hz • stereo; 26,64 MB (27 934 722 B)]
02. Pray for the Prey.ape [03:22.253; APE • 891 kbps • 16 bit \ 44100 Hz • stereo; 21,49 MB (22 528 706 B)]
03. Mary.ape [03:49.427; APE • 911 kbps • 16 bit \ 44100 Hz • stereo; 24,94 MB (26 154 326 B)]
04. Overloved.ape [03:19.373; APE • 880 kbps • 16 bit \ 44100 Hz • stereo; 20,92 MB (21 934 756 B)]
05. Dancing.ape [03:14.640; APE • 908 kbps • 16 bit \ 44100 Hz • stereo; 21,09 MB (22 115 049 B)]
06. You & I.ape [03:35.693; APE • 753 kbps • 16 bit \ 44100 Hz • stereo; 19,37 MB (20 307 881 B)]
07. It Makes Me Feel So Right.ape [06:42.213; APE • 906 kbps • 16 bit \ 44100 Hz • stereo; 43,48 MB (45 595 234 B)]
08. Go!.ape [03:44.360; APE • 863 kbps • 16 bit \ 44100 Hz • stereo; 23,10 MB (24 220 629 B)]
09. Interlude.ape [06:45.200; APE • 208 kbps • 16 bit \ 44100 Hz • stereo; 10,07 MB (10 562 646 B)]
10. Lucky One.ape [04:05.053; APE • 632 kbps • 16 bit \ 44100 Hz • stereo; 18,47 MB (19 366 712 B)]
11. Receiver.ape [04:59.813; APE • 966 kbps • 16 bit \ 44100 Hz • stereo; 34,56 MB (36 239 809 B)]
12. Impulse.ape [05:42.800; APE • 804 kbps • 16 bit \ 44100 Hz • stereo; 32,86 MB (34 455 613 B)]
13. The Recipe.ape [04:53.800; APE • 705 kbps • 16 bit \ 44100 Hz • stereo; 24,71 MB (25 913 764 B)]
14. 100%.ape [03:21.600; APE • 638 kbps • 16 bit \ 44100 Hz • stereo; 15,34 MB (16 082 882 B)]

Accuracy: -m0

File 01. Networked Life - 100% CDDA
File 02. Pray for the Prey - 100% CDDA
File 03. Mary - 100% CDDA
File 04. Overloved - 100% CDDA
File 05. Dancing - 100% CDDA
File 06. You & I - 100% CDDA
File 07. It Makes Me Feel So Right - 100% CDDA
File 08. Go! - 100% CDDA
File 09. Interlude - 99% MPEG
File 10. Lucky One - 100% CDDA
File 11. Receiver - 100% CDDA
File 12. Impulse - 100% CDDA
File 13. The Recipe - 100% CDDA
File 14. 100% - 100% CDDA
————— Summary: —————
Could not qualify the source of these tracks.
————————————————————————————————————————————————————————————————————————

ANALYZER:
auCDtect: CD records authenticity detector, version 0.8.2
Copyright (c) 2004 Oleg Berngardt. All rights reserved.
Copyright (c) 2004 Alexander Djourik. All rights reserved.

Time elapsed: 4 m 06 s
Log created at April 21, 2017 09:27:43

=== 5001D1A9A1B251646E75E1C59ACD334F467DC3CED1C3789B3852FBE482B15A1D ===
Аудиокодек Monkey's Audio Compressor (*.ape) конвертував у FLAC EZ CD Audio Converter

Якщо Ви справді бажаєте підтримати українське - після прослуховування, якщо музика вам сподобалась, придбайте ліцензійний диск. Підтримаймо вітчизняних виконавців!


Срібний реліз (на рейтинг впливає 50% завантаженого)
 Трекер:    Зареєстрований   

Завантажити / скачати українську музику



відео для новачків



 Зареєстрований:   2017-04-22 16:19
 Розмір:   352 MB 
 Оцінка музики:   10/10 (Голосів: 2)
   
Ваш часовий пояс: GMT + 2 Години

Нова тема   Відповісти