Всесвіт / The Space Movie (1980) 720p

Нові коментарі

Нова тема   Відповісти
Автор Повідомлення
niko_ghost 
Новенький


З нами з: 22.04.17
Востаннє: 20.06.17
Повідомлень: 6

2017-04-22 14:29  
Всесвіт / The Space Movie (1980) 720p

Всесвіт / The Space Movie (1980) 720p


Жанр: історичний, біографічний, документальний, навчальний
Країна: Великобританія, США



Телеканал / кіностудія: Virgin Films, Isolde Films
Переклад: Авторський. Студія Aromoterapia records
Режисер: Тоні Палмер
Сюжет:
Документальний фільм, вироблений в 1979 році Тоні Палмером на прохання NASA на честь десятої річниці висадки на Місяць Аполлон-11.

Прем'єра 78-хвилинного фільму була в 1980 році, на VHS в 1983 році і в 2007 році Річард Бренсон і Саймон Дрейпер із Virgin Films випустила фільм на DVD.

У фільмі розповідається як же відбувся перший запуск Аполлон-11 за яким слідкував увесь світ.


Тривалість: 01:19:25
Відео:
кодек: H264
розмір кадру: 1280 х 720
бітрейт: 3936 кб/с

Аудіо:
мова: українська
переклад: багатоголосий закадровий
кодек: 2.0
бітрейт: 223 кб/с
Звіт Info

Общее
Полное имя : G:\Movies\Всесвіт(The Space Movie).mp4
Формат : MPEG-4
Профиль формата : Base Media
Идентификатор кодека : isom (isom/iso2/avc1/mp41)
Размер файла : 2,31 Гбайт
Продолжительность : 1 ч. 19 м.
Общий поток : 4168 Кбит/сек
Дата кодирования : UTC 2017-04-22 11:40:31
Дата пометки : UTC 2017-04-22 11:40:31
Программа кодирования : Lavf56.36.100

Видео
Идентификатор : 2
Формат : AVC
Формат/Информация : Advanced Video Codec
Профиль формата : [email protected]
Параметр CABAC формата : Да
Параметр ReFrames формата : 1 кадр
Параметр GOP формата : M=1, N=25
Идентификатор кодека : avc1
Идентификатор кодека/Информация : Advanced Video Coding
Продолжительность : 1 ч. 19 м.
Битрейт : 3937 Кбит/сек
Ширина : 1280 пикселей
Высота : 720 пикселей
Соотношение сторон : 16:9
Режим частоты кадров : Постоянный
Частота кадров : 29,970 (30000/1001) кадров/сек
Цветовое пространство : YUV
Субдискретизация насыщенности : 4:2:0
Битовая глубина : 8 бит
Тип развёртки : Прогрессивная
Бит/(Пиксели*Кадры) : 0.143
Размер потока : 2,18 Гбайт (94%)
Дата кодирования : UTC 2017-04-22 11:40:31
Дата пометки : UTC 2017-04-22 11:40:31
Цветовой диапазон : Limited

Аудио
Идентификатор : 1
Формат :
Формат/Информация : Advanced Audio Codec
Профиль формата : LC
Идентификатор кодека : 40
Продолжительность : 1 ч. 19 м.
Duration_LastFrame : -9 мс.
Вид битрейта : Постоянный
Битрейт : 224 Кбит/сек
Каналы : 2 канала
Расположение каналов : Front: L R
Частота : 48,0 КГц
Частота кадров : 46,875 кадров/сек (1024 spf)
Метод сжатия : С потерями
Размер потока : 127 Мбайт (5%)
Default : Да
AlternateGroup/String : 1
Дата кодирования : UTC 2017-04-22 11:40:31
Дата пометки : UTC 2017-04-22 11:40:31
Скріншоти












Особиста оцінка: 10 - без зайвих вагань рекомендую всім!


Авторський реліз (завантажувати можна без реєстрації)
 Трекер:    Зареєстрований   

Завантажити / скачати торрент



відео для новачків



 Зареєстрований:   2017-04-22 14:29
 Розмір:   2.31 GB 
 Оцінка:   10/10 (Голосів: 2)
 Завантажити
   
11FrYkT 
Модератор відео


З нами з: 20.02.11
Востаннє: 18.02.19
Повідомлень: 5589

2017-04-22 20:43  
niko_ghost написано:
Всесвіт / The Space Movie(1980)

вказати якість

додати посилання imdb

Цитата:
Відео:
розмір кадру: 1280 х 720
бітрейт: 3936 кб/с

вказати відео кодек

Цитата:
Аудіо:
бітрейт: 223 кб/с

вказати мову, переклад і аудіокодек

Скріншоти не відповідають вказаному розміру

bot 
робот


З нами з: 30.09.07
Востаннє: 26.05.05
Повідомлень: 20705

2017-04-30 12:04  
Ваш часовий пояс: GMT + 2 Години

Нова тема   Відповісти