Співай / Sing (2016) 1080p 3D [Half OverUnder] Ukr/Eng | Sub Eng

Нові коментарі

Нова тема   Відповісти
Автор Повідомлення
Anonymous 







2017-04-22 13:23  
Співай / Sing (2016) 1080p 3D [Half OverUnder] Ukr/Eng | Sub Eng

Усі українські постери


















Жанр: анімація, комедія, мюзикл
Країна: США



Кінокомпанія: Universal Pictures, Illumination Entertainment
Режисер: Гарт Дженнінгс / Garth Jennings
Актори: Метью МакКонаґі / Matthew McConaughey, Різ Візерспун / Reese Witherspoon, Сет МакФарлейн / Seth MacFarlane, Скарлет Йогансен / Scarlett Johansson, Джон Сі Рейллі / John C. Reilly, Тарон Еджертон / Taron Egerton, Торі Келлі / Tori Kelly, Дженніфер Сондерс / Jennifer Saunders, Нік Кролл / Nick Kroll, Гарт Дженнінгс / Garth Jennings та інші

Сюжет:
Творці "Посіпак" оголошують старт небаченої досі пісенної битви талантів! Директор колись успішного театру коала Бастер хоче повернути своєму закладу славу і визнання. Він твердо налаштований організувати найграндіозніше у світі шоу. На прослуховування запрошено усіх! І навіть якщо ти сором'язливе слоненя-підліток, рішуча крихітна миша, заклопотана мама-свинка, крутий горила-гангстер чи дикобразиха-рокерка – не вагайся, приходь і співай на повні груди, порви усіх улюбленими хітами. Це твій шанс!
Офіційні українські трейлери:




Рейтинг MPAA: PG - рекомендується присутність батьків
Вікова категорія: 6+
Тривалість: 01:47:54
Якість: 1080p 3D [Ash61]
Відео:
кодек:
розмір кадру: 1920 х 1080
бітрейт: 15 Мб/с [crf=16.2]
формат 3D: Half OverUnder / Вертикальна анаморфна стереопара
порядок ракурсів: лівий ракурс перший
Відео для перегляду на 3D обладнанні!

Аудіо # 1:
мова: українська
переклад: професійний дубльований | студія LeDoyen
кодек: 2.0 (стерео)
бітрейт: 192 кб/с
Інформація про дубляж
Переклад: Роман Кисельов
Режисер дубляжу: Анна Пащенко
Музичний керівник: Тетяна Піроженко
Звукорежисер: Альона Шиманович
Звукорежисер перезапису: Олег Кульчицький
Координатор проекту: Аліна Гаєвська
Ролі дублювали: Юрій Горбунов, Анна Добриднєва, Євген Галич, Дмитро Монатик, Олександр Ярема, Маргарита Мелешко, Інна Бєлікова, Михайло Войчук, Артем Мартинішин, Василь Мазур, Ольга Радчук та інші.

Дубльовано та зміксовано студією LeDoyen на замовлення компанії B&H Film Distribution.
Аудіо # 2:
мова: англійська
переклад: оригінал
кодек: 5.1
бітрейт: 640 кб/с

Субтитри # 1-2:
мова: англійська (повні, SDH)
тип: програмні (м'які)
формат: *.srt

Збережено оригінальні розділи, як на Blu-ray
Info
Код:
Complete name               : Sing (2016) [Ukr,Eng sub.Eng] 1080p 3D HalfOU [Hurtom].
Format                      :
Format version              : Version 4 / Version 2
File size                   : 11.9 GiB
Duration                    : 1 h 47 min
Overall bit rate            : 15.8 Mb/s
Movie name                  : Співай / Sing (2016) [Ukr,Eng sub.Eng] 1080p 3D Half OverUnder [Hurtom]
Released date               : 2016
Writing library             : libebml v1.3.4 + libmatroska v1.4.5
Cover                       : Yes
Comment                     : http://www.imdb.com/title/tt3470600/
Attachments                 : cover.jpg
ARTIST                      : Метью МакКонаґі / Matthew McConaughey, Різ Візерспун / Reese Witherspoon, Сет МакФарлейн / Seth MacFarlane, Скарлет Йогансен / Scarlett Johansson, Джон Сі Рейллі / John C. Reilly, Тарон Еджертон / Taron Egerton, Торі Келлі / Tori Kelly, Дженніфер Сондерс / Jennifer Saunders, Нік Кролл / Nick Kroll, Гарт Дженнінгс / Garth Jennings та інші
DIRECTOR                    : Гарт Дженнінгс / Garth Jennings
GENRE                       : анімація, комедія, мюзикл
SYNOPSIS                    : Творці "Посіпак" оголошують старт небаченої досі пісенної битви талантів! Директор колись успішного театру коала Бастер хоче повернути своєму закладу славу і визнання. Він твердо налаштований організувати найграндіозніше у світі шоу. На прослуховування запрошено усіх! І навіть якщо ти сором'язливе слоненя-підліток, рішуча крихітна миша, заклопотана мама-свинка, крутий горила-гангстер чи дикобразиха-рокерка – не вагайся, приходь і співай на повні груди, порви усіх улюбленими хітами. Це твій шанс!
Url                         : https://toloka.to/t81492

Video
ID                          : 1
Format                      : AVC
Format/Info                 : Advanced Video Codec
Format profile              : [email protected]
Format settings, CABAC      : Yes
Format settings, ReFrames   : 4 frames
Codec ID                    : V_MPEG4/ISO/AVC
Duration                    : 1 h 47 min
Bit rate                    : 15.0 Mb/s
Width                       : 1 920 pixels
Height                      : 1 080 pixels
Display aspect ratio        : 16:9
Frame rate mode             : Constant
Frame rate                  : 23.976 (24000/1001) FPS
Color space                 : YUV
Chroma subsampling          : 4:2:0
Bit depth                   : 8 bits
Scan type                   : Progressive
Bits/(Pixel*Frame)          : 0.301
Stream size                 : 11.3 GiB (95%)
Title                       : Співай / Sing (2016) 1080p 3D [Half OverUnder] by Ash61
Writing library             : core 146 r2538 121396c
Encoding settings           : cabac=1 / ref=4 / deblock=1:-3:-3 / analyse=0x3:0x113 / me=umh / subme=10 / psy=1 / psy_rd=1.00:0.00 / mixed_ref=1 / me_range=32 / chroma_me=1 / trellis=2 / 8x8dct=1 / cqm=0 / deadzone=21,11 / fast_pskip=1 / chroma_qp_offset=-2 / threads=12 / lookahead_threads=3 / sliced_threads=0 / nr=0 / decimate=1 / interlaced=0 / bluray_compat=0 / constrained_intra=0 / bframes=10 / b_pyramid=2 / b_adapt=2 / b_bias=0 / direct=3 / weightb=1 / open_gop=0 / weightp=2 / keyint=250 / keyint_min=23 / scenecut=40 / intra_refresh=0 / rc_lookahead=60 / rc=crf / mbtree=0 / crf=16.2 / qcomp=0.70 / qpmin=0 / qpmax=69 / qpstep=4 / vbv_maxrate=40000 / vbv_bufsize=30000 / crf_max=0.0 / nal_hrd=none / filler=0 / frame-packing=4 / ip_ratio=1.40 / pb_ratio=1.30 / aq=1:0.70
Language                    : English
Default                     : Yes
Forced                      : No

Audio #1
ID                          : 2
Format                      : AC-3
Format/Info                 : Audio Coding 3
Format settings, Endianness : Big
Codec ID                    : A_AC3
Duration                    : 1 h 47 min
Bit rate mode               : Constant
Bit rate                    : 192 kb/s
Channel(s)                  : 2 channels
Channel positions           : Front: L R
Sampling rate               : 48.0 kHz
Frame rate                  : 31.250 FPS (1536 spf)
Bit depth                   : 16 bits
Compression mode            : Lossy
Stream size                 : 148 MiB (1%)
Title                       : Dub [LeDoyen, iTunes] 2.0 192 Kbps [Hurtom-ЙОЖЕГ]
Language                    : Ukrainian
Service kind                : Complete Main
Default                     : Yes
Forced                      : Yes

Audio #2
ID                          : 3
Format                      : AC-3
Format/Info                 : Audio Coding 3
Format settings, Endianness : Big
Codec ID                    : A_AC3
Duration                    : 1 h 47 min
Bit rate mode               : Constant
Bit rate                    : 640 kb/s
Channel(s)                  : 6 channels
Channel positions           : Front: L C R, Side: L R, LFE
Sampling rate               : 48.0 kHz
Frame rate                  : 31.250 FPS (1536 spf)
Bit depth                   : 16 bits
Compression mode            : Lossy
Stream size                 : 494 MiB (4%)
Title                       : Original, 5.1 640 Kbps
Language                    : English
Service kind                : Complete Main
Default                     : No
Forced                      : No

Text #1
ID                          : 4
Format                      : UTF-8
Codec ID                    : S_TEXT/UTF8
Codec ID/Info               : UTF-8 Plain Text
Duration                    : 1 h 38 min
Bit rate                    : 57 b/s
Count of elements           : 1410
Stream size                 : 41.3 KiB (0%)
Title                       : Eng Full
Language                    : English
Default                     : No
Forced                      : No

Text #2
ID                          : 5
Format                      : UTF-8
Codec ID                    : S_TEXT/UTF8
Codec ID/Info               : UTF-8 Plain Text
Duration                    : 1 h 39 min
Bit rate                    : 69 b/s
Count of elements           : 1733
Stream size                 : 50.6 KiB (0%)
Title                       : Eng SDH
Language                    : English
Default                     : No
Forced                      : No

Menu
00:00:00.000                : :1
00:04:29.352                : :2
00:10:36.469                : :3
00:14:04.677                : :4
00:18:32.653                : :5
00:25:14.722                : :6
00:30:04.052                : :7
00:35:11.776                : :8
00:40:07.405                : :9
00:44:36.132                : :10
00:50:26.649                : :11
00:55:36.208                : :12
01:04:40.710                : :13
01:14:03.981                : :14
01:19:17.962                : :15
01:23:59.159                : :16
01:26:56.461                : :17
01:30:38.266                : :18
01:34:47.181                : :19
01:40:16.010                : :20


Джерело: &
Подяка ЙОЖЕГ'у за українську доріжку та Ash61 за ріп


 Трекер:    Зареєстрований   

Завантажити / скачати мультфільм українською



відео для новачків



 Зареєстрований:   2017-04-28 23:53
 Розмір:   11.9 GB 
 Оцінка мультфільму:   4.5/10 (Голосів: 17)
   
Інші релізи
   Співай / Sing (2016) AVC Patriot_ukr  256 / 2   1.59 GB   2017-04-29 10:55 
   Співай / Sing (2016) Remux 1080p Ukr/Eng | Sub Eng igor911  18 / 0   27.14 GB   2017-04-29 07:09 
   Співай / Sing (2016) 720p Ukr/Eng | Sub Eng igor911  138 / 4   4.7 GB   2017-04-28 23:22 
   Співай / Sing (2016) Electroz  193 / 5   1.27 GB   2017-04-28 22:52 
   Співай / Sing (2016) 1080p Ukr/Eng | Sub Eng Electroz  51 / 1   11.1 GB   2017-04-28 22:26 
   Сусіди 2 / Neighbors 2: Sorority Rising (2016) AVC Patriot_ukr  5 / 0   1.73 GB   2017-03-20 23:49 
   Сусіди 2 / Neighbors 2: Sorority Rising (2016) 720p Ukr/Eng | Sub Eng 11FrYkT  6 / 0   5.25 GB   2016-08-24 19:19 
   Сусіди 2 / Neighbors 2: Sorority Rising (2016) Covenant  15 / 0   1.45 GB   2016-08-24 18:29 
   Сусіди 2 / Neighbors 2: Sorority Rising (2016) 1080p Ukr/Eng corega  3 / 0   6.68 GB   2016-08-22 20:27 
iceman84 
Новенький


З нами з: 05.11.14
Востаннє: 17.08.17
Повідомлень: 4

2017-04-30 22:16  
якісне 3д, дяка автору
Ash61 
Новенький


З нами з: 21.08.16
Востаннє: 16.08.17
Повідомлень: 11

2017-05-27 13:52  
skaypenet 
Новенький


З нами з: 31.07.12
Востаннє: 11.08.17
Повідомлень: 11

2017-06-17 14:28  
друзі підкажіть на чому це можна дивитися? які девайси купити ?
Anonymous 







2017-06-17 14:56  
skaypenet, найпростіше - телек з підтримкою 3D, з підтримкою форматів начебто найкраще справи [були] в LG та Samsung.
Ваш часовий пояс: GMT + 2 Години

Нова тема   Відповісти