Співай / Sing (2016) 720p Ukr/Eng | Sub Eng

Нові коментарі

Нова тема   Відповісти
Автор Повідомлення
Anonymous 







2017-04-22 13:19  
Співай / Sing (2016) 720p Ukr/Eng | Sub Eng

Усі українські постери


















Жанр: анімація, комедія, мюзикл
Країна: США



Кінокомпанія: Universal Pictures, Illumination Entertainment
Режисер: Гарт Дженнінгс / Garth Jennings
Актори: Метью МакКонаґі / Matthew McConaughey, Різ Візерспун / Reese Witherspoon, Сет МакФарлейн / Seth MacFarlane, Скарлет Йогансен / Scarlett Johansson, Джон Сі Рейллі / John C. Reilly, Тарон Еджертон / Taron Egerton, Торі Келлі / Tori Kelly, Дженніфер Сондерс / Jennifer Saunders, Нік Кролл / Nick Kroll, Гарт Дженнінгс / Garth Jennings та інші

Сюжет:
Творці "Посіпак" оголошують старт небаченої досі пісенної битви талантів! Директор колись успішного театру коала Бастер хоче повернути своєму закладу славу і визнання. Він твердо налаштований організувати найграндіозніше у світі шоу. На прослуховування запрошено усіх! І навіть якщо ти сором'язливе слоненя-підліток, рішуча крихітна миша, заклопотана мама-свинка, крутий горила-гангстер чи дикобразиха-рокерка – не вагайся, приходь і співай на повні груди, порви усіх улюбленими хітами. Це твій шанс!
Офіційні українські трейлери:




Рейтинг MPAA: PG - рекомендується присутність батьків
Вікова категорія: 6+
Тривалість: 01:47:54
Якість: 720p
Відео:
кодек:
розмір кадру: 1280 х 690
бітрейт: 5401 кб/с [crf=17.2]

Аудіо # 1:
мова: українська
переклад: професійний дубльований | студія LeDoyen
кодек: 2.0 (стерео)
бітрейт: 192 кб/с
Інформація про дубляж
Переклад: Роман Кисельов
Режисер дубляжу: Анна Пащенко
Музичний керівник: Тетяна Піроженко
Звукорежисер: Альона Шиманович
Звукорежисер перезапису: Олег Кульчицький
Координатор проекту: Аліна Гаєвська
Ролі дублювали: Юрій Горбунов, Анна Добриднєва, Євген Галич, Дмитро Монатик, Олександр Ярема, Маргарита Мелешко, Інна Бєлікова, Михайло Войчук, Артем Мартинішин, Василь Мазур, Ольга Радчук та інші.

Дубльовано та зміксовано студією LeDoyen на замовлення компанії B&H Film Distribution.
Аудіо # 2:
мова: англійська
переклад: оригінал
кодек: 5.1
бітрейт: 640 кб/с

Субтитри:
мова: англійська
тип: програмні (м'які)
формат: *.srt

Збережено оригінальні розділи, як на Blu-ray
Info
Код:
Complete name               : Sing (2016) [Ukr,Eng sub.Eng] 720p [Hurtom].
Format                      :
Format version              : Version 4 / Version 2
File size                   : 4.70 GiB
Duration                    : 1 h 47 min
Overall bit rate            : 6 236 kb/s
Movie name                  : Співай / Sing (2016) [Ukr,Eng sub.Eng] 720p [Hurtom]
Released date               : 2016
Writing library             : libebml v1.3.4 + libmatroska v1.4.5
Cover                       : Yes
Comment                     : http://www.imdb.com/title/tt3470600/
Attachments                 : cover.jpg
ARTIST                      : Метью МакКонаґі / Matthew McConaughey, Різ Візерспун / Reese Witherspoon, Сет МакФарлейн / Seth MacFarlane, Скарлет Йогансен / Scarlett Johansson, Джон Сі Рейллі / John C. Reilly, Тарон Еджертон / Taron Egerton, Торі Келлі / Tori Kelly, Дженніфер Сондерс / Jennifer Saunders, Нік Кролл / Nick Kroll, Гарт Дженнінгс / Garth Jennings та інші
DIRECTOR                    : Гарт Дженнінгс / Garth Jennings
GENRE                       : анімація, комедія, мюзикл
SYNOPSIS                    : Творці "Посіпак" оголошують старт небаченої досі пісенної битви талантів! Директор колись успішного театру коала Бастер хоче повернути своєму закладу славу і визнання. Він твердо налаштований організувати найграндіозніше у світі шоу. На прослуховування запрошено усіх! І навіть якщо ти сором'язливе слоненя-підліток, рішуча крихітна миша, заклопотана мама-свинка, крутий горила-гангстер чи дикобразиха-рокерка – не вагайся, приходь і співай на повні груди, порви усіх улюбленими хітами. Це твій шанс!
Url                         : https://toloka.to/t81491

Video
ID                          : 1
Format                      : AVC
Format/Info                 : Advanced Video Codec
Format profile              : [email protected]
Format settings, CABAC      : Yes
Format settings, ReFrames   : 9 frames
Codec ID                    : V_MPEG4/ISO/AVC
Duration                    : 1 h 47 min
Bit rate                    : 5 401 kb/s
Width                       : 1 280 pixels
Height                      : 690 pixels
Display aspect ratio        : 1.85:1
Frame rate mode             : Constant
Frame rate                  : 23.976 (24000/1001) FPS
Color space                 : YUV
Chroma subsampling          : 4:2:0
Bit depth                   : 8 bits
Scan type                   : Progressive
Bits/(Pixel*Frame)          : 0.255
Stream size                 : 4.07 GiB (87%)
Title                       : Співай / Sing (2016) 720p [scarabey]
Writing library             : core 148 r2705+45 bdacf7a 7mod [[email protected] X86_64]
Encoding settings           : cabac=1 / ref=9 / deblock=1:-3:-3 / analyse=0x3:0x113 / me=umh / subme=11 / psy=1 / fade_compensate=0.00 / psy_rd=1.00:0.05 / mixed_ref=1 / me_range=32 / chroma_me=1 / trellis=2 / 8x8dct=1 / cqm=0 / deadzone=21,11 / fast_pskip=0 / chroma_qp_offset=-2 / threads=36 / lookahead_threads=5 / sliced_threads=0 / nr=0 / decimate=1 / interlaced=0 / bluray_compat=0 / constrained_intra=0 / fgo=0 / bframes=8 / b_pyramid=2 / b_adapt=2 / b_bias=0 / direct=3 / weightb=1 / open_gop=0 / weightp=2 / keyint=250 / keyint_min=23 / scenecut=40 / intra_refresh=0 / rc=crf / mbtree=0 / crf=17.2000 / qcomp=0.60 / qpmin=0:0:0 / qpmax=69:69:69 / qpstep=4 / ip_ratio=1.40 / pb_ratio=1.30 / aq=4:0.90 / aq-sensitivity=10.00 / aq-factor=1.00:1.00:1.00 / aq2=0 / aq3=0
Language                    : English
Default                     : Yes
Forced                      : No

Audio #1
ID                          : 2
Format                      : AC-3
Format/Info                 : Audio Coding 3
Format settings, Endianness : Big
Codec ID                    : A_AC3
Duration                    : 1 h 47 min
Bit rate mode               : Constant
Bit rate                    : 192 kb/s
Channel(s)                  : 2 channels
Channel positions           : Front: L R
Sampling rate               : 48.0 kHz
Frame rate                  : 31.250 FPS (1536 spf)
Bit depth                   : 16 bits
Compression mode            : Lossy
Stream size                 : 148 MiB (3%)
Title                       : Dub [LeDoyen, iTunes] 2.0 192 Kbps [Hurtom-ЙОЖЕГ]
Language                    : Ukrainian
Service kind                : Complete Main
Default                     : Yes
Forced                      : Yes

Audio #2
ID                          : 3
Format                      : AC-3
Format/Info                 : Audio Coding 3
Format settings, Endianness : Big
Codec ID                    : A_AC3
Duration                    : 1 h 47 min
Bit rate mode               : Constant
Bit rate                    : 640 kb/s
Channel(s)                  : 6 channels
Channel positions           : Front: L C R, Side: L R, LFE
Sampling rate               : 48.0 kHz
Frame rate                  : 31.250 FPS (1536 spf)
Bit depth                   : 16 bits
Compression mode            : Lossy
Stream size                 : 494 MiB (10%)
Title                       : Original, 5.1 640 Kbps
Language                    : English
Service kind                : Complete Main
Default                     : No
Forced                      : No

Text #1
ID                          : 4
Format                      : UTF-8
Codec ID                    : S_TEXT/UTF8
Codec ID/Info               : UTF-8 Plain Text
Duration                    : 1 h 38 min
Bit rate                    : 57 b/s
Count of elements           : 1410
Stream size                 : 41.3 KiB (0%)
Title                       : Eng Full
Language                    : English
Default                     : No
Forced                      : No

Text #2
ID                          : 5
Format                      : UTF-8
Codec ID                    : S_TEXT/UTF8
Codec ID/Info               : UTF-8 Plain Text
Duration                    : 1 h 39 min
Bit rate                    : 69 b/s
Count of elements           : 1733
Stream size                 : 50.6 KiB (0%)
Title                       : Eng SDH
Language                    : English
Default                     : No
Forced                      : No

Menu
00:00:00.000                : :1
00:04:29.352                : :2
00:10:36.469                : :3
00:14:04.677                : :4
00:18:32.653                : :5
00:25:14.722                : :6
00:30:04.052                : :7
00:35:11.776                : :8
00:40:07.405                : :9
00:44:36.132                : :10
00:50:26.649                : :11
00:55:36.208                : :12
01:04:40.710                : :13
01:14:03.981                : :14
01:19:17.962                : :15
01:23:59.159                : :16
01:26:56.461                : :17
01:30:38.266                : :18
01:34:47.181                : :19
01:40:16.010                : :20


Джерело: &
Подяка ЙОЖЕГ'у за українську доріжку


 Трекер:    Зареєстрований   

Завантажити / скачати мультфільм українською



відео для новачків



 Зареєстрований:   2017-04-28 23:22
 Розмір:   4.7 GB 
 Оцінка мультфільму:   9.1/10 (Голосів: 127)
   
Інші релізи
   Співай / Sing (2016) AVC Patriot_ukr  305 / 5   1.59 GB   2017-04-29 10:55 
   Співай / Sing (2016) Remux 1080p Ukr/Eng | Sub Eng igor911  31 / 0   27.14 GB   2017-04-29 07:09 
   Співай / Sing (2016) 1080p 3D [Half OverUnder] Ukr/Eng | Sub Eng igor911  14 / 0   11.9 GB   2017-04-28 23:53 
   Співай / Sing (2016) Electroz  267 / 2   1.27 GB   2017-04-28 22:52 
   Співай / Sing (2016) 1080p Ukr/Eng | Sub Eng Electroz  70 / 0   11.1 GB   2017-04-28 22:26 
   Сусіди 2 / Neighbors 2: Sorority Rising (2016) AVC Patriot_ukr  7 / 0   1.73 GB   2017-03-20 23:49 
   Сусіди 2 / Neighbors 2: Sorority Rising (2016) 720p Ukr/Eng | Sub Eng 11FrYkT  7 / 0   5.25 GB   2016-08-24 19:19 
   Сусіди 2 / Neighbors 2: Sorority Rising (2016) Covenant  17 / 0   1.45 GB   2016-08-24 18:29 
   Сусіди 2 / Neighbors 2: Sorority Rising (2016) 1080p Ukr/Eng corega  6 / 0   6.68 GB   2016-08-22 20:27 
Zastavniy.Andriy 
Частий відвідувач


З нами з: 06.11.12
Востаннє: 16.08.17
Повідомлень: 32

2017-04-28 18:20  
і тут той монатік, блін, туфта його пісні, слова взагалі не розбереш, москаль.
leicheman 
Відео Гуртом - підтримка та поширення
Відео Гуртом - підтримка та поширення


З нами з: 03.07.14
Востаннє: 16.08.17
Повідомлень: 1041

2017-04-29 13:03  
Щойно подивився І отримав просто неймовірне задоволення від мультфільму. 10 з 10 от немає до чого мені причепитися. Сподобається малим і дорослим.
Cobretti 
Новенький


З нами з: 30.03.10
Востаннє: 16.08.17
Повідомлень: 8

2017-04-29 18:52  
Це тільки в мене, чи теж помітили - звук якийсь рваний, важко дивитись, зкачаю блюрик і сам попробую зробити собі файл, але не впевнений, що буде краще, дякую за роздачу
ffantastt 
Новенький


З нами з: 19.01.16
Востаннє: 10.08.17
Повідомлень: 8

2017-04-29 19:44  
другий раз подивився за цей рік, мій вердикт - неймовірно! Дуже хочеться українську версію пісні дикобразихи собі в плеєр, є вона десь в окремому мп3-файлі? Чи може хтось вирізати? Буду вдячний.
Electroz 
Відео Гуртом - підтримка та поширення
Відео Гуртом - підтримка та поширення


З нами з: 18.09.14
Востаннє: 16.08.17
Повідомлень: 1489

2017-04-29 20:41  
ffantastt
Готово. https://toloka.to/t81620#897266

Cobretti 
Новенький


З нами з: 30.03.10
Востаннє: 16.08.17
Повідомлень: 8

2017-04-30 04:47  
ffantastt
OST є на сайті rutracker.org

leicheman 
Відео Гуртом - підтримка та поширення
Відео Гуртом - підтримка та поширення


З нами з: 03.07.14
Востаннє: 16.08.17
Повідомлень: 1041

2017-04-30 09:39  
Cobretti написано:
Це тільки в мене, чи теж помітили - звук якийсь рваний

мабуть то проблеми з вашим залізом, бо я дивився на телеку і було усе окей.

ffantastt 
Новенький


З нами з: 19.01.16
Востаннє: 10.08.17
Повідомлень: 8

2017-04-30 15:17  
Cobretti українською там теж є? Бо мені саме пісня Еш українською потрібна була, оригінал я вже давно купив.
Cobretti 
Новенький


З нами з: 30.03.10
Востаннє: 16.08.17
Повідомлень: 8

2017-05-01 10:08  
ffantastt
ні, немає

peacemakerua 
Новенький


З нами з: 24.03.13
Востаннє: 15.08.17
Повідомлень: 10

2017-05-02 02:54  
Чудовий мульт ))))))
mutomba 
Поважний учасник


З нами з: 20.10.13
Востаннє: 16.08.17
Повідомлень: 194

2017-05-02 23:08  
Гарний мульт Happy
hur 
Новенький


З нами з: 29.11.10
Востаннє: 13.08.17
Повідомлень: 22

2017-05-05 23:29  
Бомбезний мульт! Дуже позитивний )
Горбунов розвалив театр Wide grin

Дика птаха 
Новенький


З нами з: 24.02.17
Востаннє: 15.08.17
Повідомлень: 11

2017-05-10 19:47  
Кумедний такий мультик. 10/10. І діткам сподобається - наче нема в ньому чогось дуже страшного.
[email protected] 
Новенький


З нами з: 13.10.16
Востаннє: 16.08.17
Повідомлень: 1

2017-05-12 23:25  
Це просто шедевр.
Ash61 
Новенький


З нами з: 21.08.16
Востаннє: 16.08.17
Повідомлень: 11

2017-05-27 13:53  
extrom 
Новенький


З нами з: 21.02.16
Востаннє: 16.08.17
Повідомлень: 2

2017-06-20 23:46  
Дякую. Чудовий мульт.
Ваш часовий пояс: GMT + 2 Години

Нова тема   Відповісти