Правила не застосовуються / Rules Don't Apply (2016) Remux 1080p Ukr/Eng | Sub Ukr/Eng

Нові коментарі

Нова тема   Відповісти
Автор Повідомлення
Anonymous 







2017-04-22 12:52  
Правила не застосовуються / Rules Don't Apply (2016) Remux 1080p Ukr/Eng | Sub Ukr/Eng

Інший постер


Жанр: драма, мелодрама, комедія
Країна: США



Кінокомпанія: Regency Enterprises, RatPac Entertainment, Worldview Entertainment, Robson Orr Entertainment, Shangri-La Entertainment, Fiore Group, Demarest Films, Windsor Media, Tatira
Режисер: Воррен Бітті / Warren Beatty
Актори: Воррен Бітті / Warren Beatty, Гейлі Беннетт / Haley Bennett, Лілі Коллінз / Lily Collins, Таісса Фарміга / Taissa Farmiga, Алек Болдвін / Alec Baldwin, Ед Гаріс / Ed Harris, Олден Еренрайк / Alden Ehrenreich, Аннетт Бенінг / Annette Bening, Метью Бродерік / Matthew Broderick, Дебні Коулмен / Dabney Coleman, Олівер Платт /Oliver Platt, Мартін Шин / Martin Sheen, Пол Сорвіно / Paul Sorvino та інші

Сюжет:
Фільм розповідає про молоду жінку, яка закохується в ексцентричного мільйонера Говарда Г'юза в самий розпал своїх відносин з його водієм.

Рейтинг MPAA: PG-13 - дітям до 13 років перегляд не бажаний
Вікова категорія: 12+
Тривалість: 02:06:22
Якість: Remux
Відео:
кодек:
розмір кадру: 1920 х 1080
бітрейт: 28504 кб/с

Аудіо # 1:
мова: українська
переклад: професійний дубльований
кодек: 2.0
бітрейт: 192 кб/с

Аудіо # 2:
мова: англійська
переклад: оригінал
кодек: -HD MA 5.1
бітрейт: 3438 кб/с

Аудіо # 3:
мова: англійська
переклад: описова
кодек: 5.1
бітрейт: 448 кб/с

Субтитри # 1:
мова: українська
тип: пререндерні
формат: PGS

Субтитри # 2:
мова: англійська
тип: пререндерні
формат: PGS

Збережено оригінальні розділи, як на Blu-ray
Info
Код:
Complete name               : Rules Don't Apply (2016) [Ukr,Eng sub.Ukr,Eng] Remux 1080p [Hurtom].
Format                      :
Format version              : Version 4 / Version 2
File size                   : 28.6 GiB
Duration                    : 2 h 6 min
Overall bit rate mode       : Variable
Overall bit rate            : 32.4 Mb/s
Movie name                  : Правила не застосовуються / Rules Don't Apply (2016) [Ukr,Eng sub.Ukr,Eng] Remux 1080p [Hurtom]
Released date               : 2016
Writing library             : libebml v1.3.4 + libmatroska v1.4.5
Cover                       : Yes
Comment                     : http://www.imdb.com/title/tt1974420/
Attachments                 : cover.jpg
ARTIST                      : Воррен Бітті / Warren Beatty, Гейлі Беннетт / Haley Bennett, Лілі Коллінз / Lily Collins, Таісса Фарміга / Taissa Farmiga, Алек Болдвін / Alec Baldwin, Ед Гарріс / Ed Harris, Олден Еренрайк / Alden Ehrenreich, Аннетт Бенінг / Annette Bening, Метью Бродерік / Matthew Broderick, Дебні Коулмен / Dabney Coleman, Оливер Платт /Oliver Platt, Мартін Шин / Martin Sheen, Пол Сорвіно / Paul Sorvino та інші
DIRECTOR                    : Воррен Бітті / Warren Beatty
GENRE                       : драма, мелодрама, комедія
SYNOPSIS                    : Фільм розповідає про молоду жінку, яка закохується в ексцентричного мільйонера Говарда Хьюза в самий розпал своїх відносин з його водієм.
Url                         : https://toloka.to/t81490

Video
ID                          : 1
Format                      : AVC
Format/Info                 : Advanced Video Codec
Format profile              : [email protected]
Format settings, CABAC      : Yes
Format settings, ReFrames   : 4 frames
Codec ID                    : V_MPEG4/ISO/AVC
Duration                    : 2 h 6 min
Bit rate mode               : Variable
Bit rate                    : 28.2 Mb/s
Maximum bit rate            : 31.0 Mb/s
Width                       : 1 920 pixels
Height                      : 1 080 pixels
Display aspect ratio        : 16:9
Frame rate mode             : Constant
Frame rate                  : 23.976 (24000/1001) FPS
Color space                 : YUV
Chroma subsampling          : 4:2:0
Bit depth                   : 8 bits
Scan type                   : Progressive
Bits/(Pixel*Frame)          : 0.568
Stream size                 : 24.9 GiB (87%)
Title                       : Правила не застосовуються / Rules Don't Apply (2016) Remux 1080p [HDClub, BLURAY-LAZERS]
Language                    : English
Default                     : Yes
Forced                      : No

Audio #1
ID                          : 2
Format                      : AC-3
Format/Info                 : Audio Coding 3
Format settings, Endianness : Big
Codec ID                    : A_AC3
Duration                    : 2 h 6 min
Bit rate mode               : Constant
Bit rate                    : 192 kb/s
Channel(s)                  : 2 channels
Channel positions           : Front: L R
Sampling rate               : 48.0 kHz
Frame rate                  : 31.250 FPS (1536 spf)
Bit depth                   : 16 bits
Compression mode            : Lossy
Stream size                 : 174 MiB (1%)
Title                       : Dub [iTunes Rus], 2.0 192 Kbps [HDClub]
Language                    : Ukrainian
Service kind                : Complete Main
Default                     : Yes
Forced                      : Yes

Audio #2
ID                          : 3
Format                      :
Format/Info                 : Digital Theater Systems
Format profile              : MA / Core
Mode                        : 16
Format settings, Endianness : Big
Codec ID                    : A_DTS
Duration                    : 2 h 6 min
Bit rate mode               : Variable / Constant
Bit rate                    : 3 438 kb/s / 1 509 kb/s
Channel(s)                  : 6 channels
Channel positions           : Front: L C R, Side: L R, LFE
Sampling rate               : 48.0 kHz
Frame rate                  : 93.750 FPS (512 spf)
Bit depth                   : 24 bits
Compression mode            : Lossless / Lossy
Stream size                 : 3.03 GiB (11%)
Title                       : Original, -HD MA 5.1 3438 Kbps
Language                    : English
Default                     : No
Forced                      : No

Audio #3
ID                          : 4
Format                      : AC-3
Format/Info                 : Audio Coding 3
Format settings, Endianness : Big
Codec ID                    : A_AC3
Duration                    : 2 h 6 min
Bit rate mode               : Constant
Bit rate                    : 448 kb/s
Channel(s)                  : 6 channels
Channel positions           : Front: L C R, Side: L R, LFE
Sampling rate               : 48.0 kHz
Frame rate                  : 31.250 FPS (1536 spf)
Bit depth                   : 16 bits
Compression mode            : Lossy
Stream size                 : 405 MiB (1%)
Title                       : Descriptive, 5.1 448 Kbps
Language                    : English
Service kind                : Complete Main
Default                     : No
Forced                      : No

Text #1
ID                          : 5
Format                      : PGS
Muxing mode                 : zlib
Codec ID                    : S_HDMV/PGS
Codec ID/Info               : Picture based subtitle format used on BDs/HD-DVDs
Duration                    : 2 h 5 min
Bit rate                    : 31.0 kb/s
Count of elements           : 4034
Stream size                 : 27.9 MiB (0%)
Title                       : Ukr full [iTunes]
Language                    : Ukrainian
Default                     : No
Forced                      : No

Text #2
ID                          : 6
Format                      : PGS
Muxing mode                 : zlib
Codec ID                    : S_HDMV/PGS
Codec ID/Info               : Picture based subtitle format used on BDs/HD-DVDs
Duration                    : 2 h 4 min
Bit rate                    : 23.2 kb/s
Count of elements           : 5142
Stream size                 : 20.6 MiB (0%)
Title                       : Eng SDH
Language                    : English
Default                     : No
Forced                      : No

Menu
00:00:00.000                : en:Chapter 1
00:03:47.518                : en:Chapter 2
00:06:54.454                : en:Chapter 3
00:11:44.412                : en:Chapter 4
00:15:57.373                : en:Chapter 5
00:21:31.163                : en:Chapter 6
00:28:39.759                : en:Chapter 7
00:31:49.531                : en:Chapter 8
00:38:12.164                : en:Chapter 9
00:41:54.010                : en:Chapter 10
00:46:55.771                : en:Chapter 11
00:52:16.632                : en:Chapter 12
00:56:21.503                : en:Chapter 13
01:03:14.831                : en:Chapter 14
01:07:13.945                : en:Chapter 15
01:12:35.893                : en:Chapter 16
01:16:39.886                : en:Chapter 17
01:20:47.841                : en:Chapter 18
01:25:17.319                : en:Chapter 19
01:29:58.684                : en:Chapter 20
01:35:58.586                : en:Chapter 21
01:44:52.536                : en:Chapter 22
01:53:26.216                : en:Chapter 23
02:01:34.412                : en:Chapter 24


Джерело: &
Подяка Gelios'у за постери.

ЗАЛИШАЙТЕСЬ ЯКОМОГА ДОВШЕ НА РОЗДАЧІ
ЗАВАНТАЖИВ САМ - ДАЙ ЗАВАНТАЖИТИ ІНШИМ!


Золотий реліз (завантажене не впливає на рейтинг)
 Трекер:    Зареєстрований   

Завантажити / скачати фільм українською



відео для новачків



 Зареєстрований:   2017-04-23 01:26
 Розмір:   28.58 GB 
 Оцінка фільму:   3.2/10 (Голосів: 15)
   
Zovmoto 
Частий відвідувач


З нами з: 18.12.12
Востаннє: 21.10.17
Повідомлень: 37

2017-05-01 15:45  
Фільм переважно про Говарда Г'юза та прив'язаність людей до нього незалежно від симпатій одні до одних. Раз переглянути можна 7 із 10.
Ваш часовий пояс: GMT + 2 Години

Нова тема   Відповісти