Б'ютифул / Biutiful (2010) 720p Ukr/Spa | Sub Eng

Нові коментарі

Нова тема   Відповісти
Автор Повідомлення
Anonymous 







2017-04-21 19:39  
Б'ютифул / Biutiful (2010) 720p Ukr/Spa | Sub Eng

Б'ютифул / Biutiful (2010) 720p Ukr/Spa | Sub Eng


Жанр: драма
Країна: Мексика, Іспанія



Кінокомпанія: Menageatroz, Mod Producciones, Focus Features, Televisión Española (TVE), Televisió de Catalunya (TV3), Ikiru Films, Cha Cha Chá Films
Режисер: Алехандро Гонсалес Іньярріту / Alejandro González Iñárritu
Актори: Хав'єр Бардем / Javier Bardem, Марісель Альварес / Maricel Álvarez, Ханна Бушаіб / Hanaa Bouchaib, Гільєрмо Естрелла / Guillermo Estrella, Едуард Фернандес / Eduard Fernández, Шейх Ндіай / Cheikh Ndiaye, Діарьяту Дафф / Diaryatou Daff, Чен Таї Шен / Taishen Cheng, Ло Цзінь / Jin Luo, Джордж Чібуіквем Чуквума / George Chibuikwem Chukwuma та інші

Сюжет:
Розлучений батько двох дітей Уксбаль (Хав'єр Бардем) - своя людина у тіньовому світі Барселони. Для правоохоронних органів він - порушник закону; для нелегальних іммігрантів, яким допомагає отримати роботу - добрий ангел. Дізнавшись, що невиліковно хворий, Уксбаль починає готуватися до смерті, роздумуючи про минуле і залагоджуючи справи в сьогоденні...

Рейтинг MPAA: R - особам до 17 років обов'язкова присутність батьків або дорослого опікуна
Вікова категорія: 16+
Тривалість: 02:27:23
Якість: 720p [EbP]
Відео:
кодек:
розмір кадру: 1280 х 696
бітрейт: 8835 кб/с
примітки:
    - ріп з німецького видання без хардсабу, з оригінальним AR (співвідношенням сторін)
    - у фільмі різні AR, тому є місця зі смугами та без.


Аудіо # 1:
мова: українська
переклад: багатоголосий закадровий
кодек: 2.0
бітрейт: 192 кб/с

Аудіо # 2:
мова: іспанська
переклад: оригінал
кодек: 5.1
бітрейт: 640 кб/с

Субтитри # 1:
мова: англійська
тип: програмні (м'які)
формат: *.srt

Субтитри # 2:
мова: іспанська (лише на фрази африканською та китайською мовами)
тип: програмні (м'які)
формат: *.srt

Збережено оригінальні розділи, як на Blu-ray
Info
Код:
Complete name               : Biutiful (2010) [Ukr,Spa sub.Eng] 720p [Hurtom].
Format                      :
Format version              : Version 4 / Version 2
File size                   : 9.95 GiB
Duration                    : 2 h 27 min
Overall bit rate            : 9 670 kb/s
Movie name                  : Б'ютифул / Biutiful (2010) [Ukr,Spa sub.Eng] 720p [Hurtom]
Released date               : 2010
Writing library             : libebml v1.3.4 + libmatroska v1.4.5
Cover                       : Yes
Comment                     : http://www.imdb.com/title/tt1164999/
Attachments                 : cover.jpg
ARTIST                      : Хав'єр Бардем / Javier Bardem, Марісель Альварес / Maricel Álvarez, Ханна Бушаіб / Hanaa Bouchaib, Гільєрмо Естрелла / Guillermo Estrella, Едуард Фернандес / Eduard Fernández, Шейх Ндіай / Cheikh Ndiaye, Діарьяту Дафф / Diaryatou Daff, Чен Таї Шен / Taishen Cheng, Ло Цзінь / Jin Luo, Джордж Чібуіквем Чуквума / George Chibuikwem Chukwuma та інші
DIRECTOR                    : Алехандро Гонсалес Іньярріту / Alejandro González Iñárritu
GENRE                       : драма
SYNOPSIS                    : Розлучений батько двох дітей Уксбаль (Хав'єр Бардем) - своя людина у тіньовому світі Барселони. Для правоохоронних органів він - порушник закону; для нелегальних іммігрантів, яким допомагає отримати роботу - добрий ангел. Дізнавшись, що невиліковно хворий, Уксбаль починає готуватися до смерті, роздумуючи про минуле і залагоджуючи справи в сьогоденні.
Url                         : https://toloka.to/t81481

Video
ID                          : 1
Format                      : AVC
Format/Info                 : Advanced Video Codec
Format profile              : [email protected]
Format settings, CABAC      : Yes
Format settings, ReFrames   : 9 frames
Codec ID                    : V_MPEG4/ISO/AVC
Duration                    : 2 h 27 min
Bit rate                    : 8 835 kb/s
Width                       : 1 280 pixels
Height                      : 696 pixels
Display aspect ratio        : 1.85:1
Frame rate mode             : Constant
Frame rate                  : 23.976 (24000/1001) FPS
Color space                 : YUV
Chroma subsampling          : 4:2:0
Bit depth                   : 8 bits
Scan type                   : Progressive
Bits/(Pixel*Frame)          : 0.414
Stream size                 : 9.10 GiB (91%)
Title                       : Б'ютифул / Biutiful (2010) 720p [EbP]
Writing library             : core 116 r2074 2641b9e
Encoding settings           : cabac=1 / ref=9 / deblock=1:-3:-3 / analyse=0x3:0x113 / me=umh / subme=10 / psy=1 / psy_rd=1.20:0.00 / mixed_ref=1 / me_range=16 / chroma_me=1 / trellis=2 / 8x8dct=1 / cqm=0 / deadzone=21,11 / fast_pskip=0 / chroma_qp_offset=-2 / threads=6 / sliced_threads=0 / nr=0 / decimate=0 / interlaced=0 / bluray_compat=0 / constrained_intra=0 / bframes=7 / b_pyramid=2 / b_adapt=2 / b_bias=0 / direct=3 / weightb=1 / open_gop=0 / weightp=2 / keyint=250 / keyint_min=23 / scenecut=40 / intra_refresh=0 / rc=crf / mbtree=0 / crf=16.7 / qcomp=0.60 / qpmin=0 / qpmax=69 / qpstep=4 / ip_ratio=1.40 / pb_ratio=1.30 / aq=1:0.65
Language                    : English
Default                     : Yes
Forced                      : No

Audio #1
ID                          : 2
Format                      : AC-3
Format/Info                 : Audio Coding 3
Format settings, Endianness : Big
Codec ID                    : A_AC3
Duration                    : 2 h 27 min
Bit rate mode               : Constant
Bit rate                    : 192 kb/s
Channel(s)                  : 2 channels
Channel positions           : Front: L R
Sampling rate               : 48.0 kHz
Frame rate                  : 31.250 FPS (1536 spf)
Bit depth                   : 16 bits
Compression mode            : Lossy
Stream size                 : 202 MiB (2%)
Title                       : MVO [1+1] 2.0 192 Kbps [Hurtom-drop_plz]
Language                    : Ukrainian
Service kind                : Complete Main
Default                     : Yes
Forced                      : Yes

Audio #2
ID                          : 3
Format                      : AC-3
Format/Info                 : Audio Coding 3
Format settings, Endianness : Big
Codec ID                    : A_AC3
Duration                    : 2 h 27 min
Bit rate mode               : Constant
Bit rate                    : 640 kb/s
Channel(s)                  : 6 channels
Channel positions           : Front: L C R, Side: L R, LFE
Sampling rate               : 48.0 kHz
Frame rate                  : 31.250 FPS (1536 spf)
Bit depth                   : 16 bits
Compression mode            : Lossy
Stream size                 : 675 MiB (7%)
Title                       : Original, 5.1 640 Kbps
Language                    : Spanish
Service kind                : Complete Main
Default                     : No
Forced                      : No

Text #1
ID                          : 4
Format                      : UTF-8
Codec ID                    : S_TEXT/UTF8
Codec ID/Info               : UTF-8 Plain Text
Duration                    : 2 h 16 min
Bit rate                    : 35 b/s
Count of elements           : 1068
Stream size                 : 35.5 KiB (0%)
Title                       : Eng full
Language                    : English
Default                     : No
Forced                      : No

Text #2
ID                          : 5
Format                      : UTF-8
Codec ID                    : S_TEXT/UTF8
Codec ID/Info               : UTF-8 Plain Text
Duration                    : 1 h 7 min
Bit rate                    : 5 b/s
Count of elements           : 90
Stream size                 : 2.60 KiB (0%)
Title                       : Spanish [foreign parts only]
Language                    : Spanish
Default                     : No
Forced                      : No

Menu
00:00:00.000                : en:00:00:00.000
00:18:06.294                : en:00:18:06.294
00:28:51.772                : en:00:28:51.772
00:35:14.696                : en:00:35:14.696
00:47:11.370                : en:00:47:11.370
01:02:52.477                : en:01:02:52.477
01:17:10.000                : en:01:17:10.000
01:27:22.571                : en:01:27:22.571
01:43:31.247                : en:01:43:31.247
01:59:15.565                : en:01:59:15.565
02:09:52.410                : en:02:09:52.410
02:17:55.058                : en:02:17:55.058


Джерело: &
Подяка за українську доріжку drop_plz.

ЗАЛИШАЙТЕСЬ ЯКОМОГА ДОВШЕ НА РОЗДАЧІ
ЗАВАНТАЖИВ САМ - ДАЙ ЗАВАНТАЖИТИ ІНШИМ!


 Трекер:    Зареєстрований   

Завантажити / скачати фільм українською



відео для новачків



 Зареєстрований:   2017-04-22 02:13
 Розмір:   9.95 GB 
 Оцінка фільму:   4.2/10 (Голосів: 16)
   
Інші релізи
   Б'ютифул / Biutiful (2010) 1080p Ukr/Spa | Sub Eng IronBee  2 / 0   18.35 GB   2017-06-23 20:38 
   Б'ютифул / Biutiful (2010) AVC Ukr/Spa | Sub Eng igor911  3 / 0   4.26 GB   2017-04-22 04:27 
   Б'ютифул / Biutiful (2010) drop_plz  11 / 1   2.24 GB   2017-04-21 09:08 
Ваш часовий пояс: GMT + 2 Години

Нова тема   Відповісти