Пуститися берега (Сезон 4) / Breaking Bad (Season 4) (2011-2012) 4K 2160p Ukr/Eng

Нові коментарі

Нова тема   Відповісти
Автор Повідомлення
dilnix 
Свій


З нами з: 22.07.12
Востаннє: 26.05.17
Повідомлень: 92

2017-04-21 01:30  
Пуститися берега (Сезон 4) / Breaking Bad (Season 4) (2011-2012) 4K 2160p Ukr/Eng

Пуститися берега (Сезон 4) / Breaking Bad (Season 4) (2011-2012) 4K 2160p Ukr/Eng

Жанр: драма, кримінальний
Країна: США



Кінокомпанія / телеканал: High Bridge Productions, Gran Via Productions, Sony Pictures Television
Автор ідеї: Вінс Джиліган / Vince Gilligan
Актори: Браян Кренстон / Bryan Cranston, Анна Ґанн / Anna Gunn, Аарон Пол / Aaron Paul, Дін Норріс / Dean Norris, Бетсі Брендт / Betsy Brandt, ЕрДжей Мітт / RJ Mitte та інші

Сюжет:
Уолтер Уайт - викладач хімії в школі. У нього є дружина, яка вагітна, й син-інвалід. Уолт уже немолодий і в його віці часто бувають кризи, тим більше потрібно годувати родину, а на заробітну платню викладача не розгуляєшся, тому він змушений підробляти на автомийці, де його ж студенти з нього насміхаються, а ще син, чию інвалідність теж постійно осміюють.
Його свояк працює в Управлінні по боротьбі з наркотиками й одного разу пропонує взяти участь в облаві будинку, де розташована лабораторія з виробництва метамфетаміна. Під час облави Уолт випадково бачить, як один дилер тікає, ним виявляється його колишній студент.
Розчарований у житті, Уолт вирішує зайнятися з ним бізнесом з виробництва метамфетаміна. Хто ще може приготувати найчистіший метамфетамін, як не вчитель хімії?
Уолт і його напарник знімають трейлер для влаштування лабораторії, виїхавши у пустелю, подалі від очей. Перша партія готова, напарник Уолта Джессі йде її реалізовувати...
Перелік серій
01. Канцелярський ніж /Box Cutter
02. Тридцять восьмий, курносий / Thirty-Eight Snub
03. Дім на продаж / Open House
04. Ключові моменти / Bullet Points
05. Дробовик / Shotgun
06. Загнаний в кут / Cornered
07. Проблемний пес / Problem Dog
08. Брати / Hermanos
09. Жучок / Bug
10. На здоров'я! / Salud
11. Підпілля / Crawl Space
12. Пора закінчувати / End Times
13. Без обличчя / Face Off
Тривалість: 1 серія: ~47 хв. (цілком серій в сезоні: 13)
Якість: 4K - Sony 4K Video Unlimited Service (Джерело відео - загальнодоступний реліз UltraHDClub)

Відео:
кодек:
розмір кадру: 3840 x 2160
бітрейт: ~75 Мб/с

Аудіо # 1:
мова: українська
переклад: багатоголосий закадровий, ТакТребаПродакшн на замовлення телеканалу
кодек: 2.0
бітрейт: 192 кб/с

Аудіо # 2:
мова: англійська
переклад: оригінал
кодек: -HD MA 5.1
бітрейт: ~2333.00 kbps avg
Скріншоти
Info
General
Unique ID : 9592714706296317860372200497142225841 (0x7377D59B530A00B31D58CACC972DBB1)
Complete name : bb.s04.2160p.4KRip.Sony.Ukr.Eng-Amc/Breaking.Bad.S04E01.2160p.4KRip.Sony.Ukr[AMC].Eng.
Format :
Format version : Version 4 / Version 2
File size : 23.3 GiB
Duration : 47 min 11 s
Overall bit rate : 70.7 Mb/s
Encoded date : UTC 2017-04-20 07:18:47
Writing application : mkvmerge v9.2.0 ('Photograph') 64bit
Writing library : libebml v1.3.3 + libmatroska v1.4.4

Video
ID : 1
Format : AVC
Format/Info : Advanced Video Codec
Format profile : [email protected]
Format settings, CABAC : Yes
Format settings, ReFrames : 5 frames
Codec ID : V_MPEG4/ISO/AVC
Duration : 47 min 11 s
Bit rate : 68.2 Mb/s
Width : 3 840 pixels
Height : 2 160 pixels
Display aspect ratio : 16:9
Frame rate mode : Constant
Frame rate : 23.976 (24000/1001) FPS
Color space : YUV
Chroma subsampling : 4:2:0
Bit depth : 8 bits
Scan type : Progressive
Bits/(Pixel*Frame) : 0.343
Stream size : 22.5 GiB (96%)
Writing library : core 148 r2638 7599210
Encoding settings : cabac=1 / ref=5 / deblock=1:-2:-2 / analyse=0x3:0x133 / me=umh / subme=10 / psy=1 / psy_rd=1.15:0.00 / mixed_ref=1 / me_range=48 / chroma_me=1 / trellis=2 / 8x8dct=1 / cqm=0 / deadzone=21,11 / fast_pskip=1 / chroma_qp_offset=-2 / threads=12 / lookahead_threads=2 / sliced_threads=0 / nr=0 / decimate=0 / interlaced=0 / bluray_compat=0 / constrained_intra=0 / bframes=8 / b_pyramid=2 / b_adapt=2 / b_bias=0 / direct=3 / weightb=1 / open_gop=0 / weightp=2 / keyint=240 / keyint_min=23 / scenecut=40 / intra_refresh=0 / rc_lookahead=60 / rc=crf / mbtree=1 / crf=18.0 / qcomp=0.70 / qpmin=0 / qpmax=69 / qpstep=4 / vbv_maxrate=300000 / vbv_bufsize=300000 / crf_max=0.0 / nal_hrd=none / filler=0 / ip_ratio=1.30 / aq=1:0.70
Language : English
Default : Yes
Forced : No

Audio #1
ID : 2
Format : AC-3
Format/Info : Audio Coding 3
Mode extension : CM (complete main)
Format settings, Endianness : Big
Codec ID : A_AC3
Duration : 47 min 11 s
Bit rate mode : Constant
Bit rate : 192 kb/s
Channel(s) : 2 channels
Channel positions : Front: L R
Sampling rate : 48.0 kHz
Frame rate : 31.250 FPS (1536 spf)
Bit depth : 16 bits
Compression mode : Lossy
Stream size : 64.8 MiB (0%)
Language : Ukrainian
Default : Yes
Forced : No

Audio #2
ID : 3
Format :
Format/Info : Digital Theater Systems
Format profile : MA / Core
Mode : 16
Format settings, Endianness : Big
Codec ID : A_DTS
Duration : 47 min 11 s
Bit rate mode : Variable / Constant
Bit rate : 2 333 kb/s / 1 509 kb/s
Channel(s) : 6 channels
Channel positions : Front: L C R, Side: L R, LFE
Sampling rate : 48.0 kHz
Frame rate : 93.750 FPS (512 spf)
Bit depth : 16 bits
Compression mode : Lossless / Lossy
Stream size : 788 MiB (3%)
Language : English
Default : No
Forced : No

Джерело та подяки: &
Особиста оцінка: 10 - без зайвих вагань рекомендую всім!


Золотий реліз (завантажене не впливає на рейтинг)
 Трекер:    Зареєстрований   

Завантажити / скачати серіал українською



відео для новачків



 Зареєстрований:   2017-04-21 01:30
 Розмір:   295.42 GB 
 Оцінка серіалу:   10/10 (Голосів: 10)
   
Electroz 
Відео Гуртом - підтримка та поширення
Відео Гуртом - підтримка та поширення


З нами з: 18.09.14
Востаннє: 27.05.17
Повідомлень: 1183

2017-04-21 10:07  
Це
igor911 
Відео Гуртом
Відео Гуртом


З нами з: 18.01.08
Востаннє: 27.05.17
Повідомлень: 6788

2017-04-21 10:14  
Ні, це (тобто по аналогії з відео, завантаженими з айтюнсу чи амазону без подальшого перекодування на джерелі вказали в назві )
dilnix 
Свій


З нами з: 22.07.12
Востаннє: 26.05.17
Повідомлень: 92

2017-04-21 15:15  
Electroz
igor911
Хлопці, яка нафіг різниця, якщо це все одно якісніше та гарніше за FHD та HD?
Я пом'ятаю часи, коли вважався паскудним рівнем якості, що стосувалося відосів тупо витягнутих з сайтів... максимум з Ютубу. А наразі якість ВебРіпів в форматі FHD та 4K ломають старі стереотипип як рибу об скали.
Те саме стосується і . Колись раніше, ніхто навіть уявляти не міг, що вийде 4K улюбленого фільму, і прийдеться викинути свій БлуРей диск з колись найкращим FHD...

Але за виправлення дякую!

igor911 
Відео Гуртом
Відео Гуртом


З нами з: 18.01.08
Востаннє: 27.05.17
Повідомлень: 6788

2017-04-21 17:51  
dilnix написано:
якщо це все одно якісніше та гарніше за FHD...і прийдеться викинути свій БлуРей диск...

ну до цього вебкам 4к ще далеченько

4K<--------------------------------------------------> Blu-ray





на цьому порівнянні є невеликий виграш 4K у деталізації проти Blu-ray, але шуми, артефакти стиснення та розмір роблять його перевагу мінімальною.

Ваш часовий пояс: GMT + 2 Години

Нова тема   Відповісти