Бліч: Повстання алмазного пилу. Інший Хьорінмару / Gekijouban Bleach: The DiamondDust Rebellion Mou Hitotsu no Hyourinmaru / 劇場版 BLEACH The DiamondDust Rebellion もう一つの氷輪丸 [2007] 720p

Нові коментарі

Нова тема   Відповісти
Автор Повідомлення
Arch Enemy 
VIP


З нами з: 30.08.12
Востаннє: 12.12.17
Повідомлень: 992

2017-04-20 22:25  
Бліч: Повстання алмазного пилу. Інший Хьорінмару / Gekijouban Bleach: The DiamondDust Rebellion Mou Hitotsu no Hyourinmaru



Країна: Японія
Прем'єра: 22.12.2007
Жанр: пригоди, шьонен, комедія, драма
Аніместудія: Studio Pierrot

Тривалість: 01год. 32хв. 45сек.

Режисер: Абе Норіюкі
Автор Оригіналу: Кубо Тайте
Сейю: Моріта Масаказу (Куросакі Ічіґо), Ішіда Акіра (Кусака Соуджіро), Іто Кентаро (Абарай Ренджі), Фукуяма Джун (Аясеґава Юмічіка), Паку Ромі (Хіцуґая Тошіро), Орікаса Фуміко (Кучікі Рукія), Ніші Рінтаро (Іба Тецузаемон), Мацуока Юкі (Іное Оріхіме), Суґіяма Норіакі (Ішіда Урюу), Сакурай Такахіро (Кіра Ізуру), Окіаю Рьотаро (Кучікі Б'якуя), Морікава Тошіюкі (Куросакі Ішін), Куґімія Ріе (Куросакі Карін), Сена Аюмі (Куросакі Юзу), Оохара Саяка (Куросакі Масакі), Накао Рюусей (Куроцучі Маюрі), Мочізукі Хісайо (Кусаджіші Ячіру), Ооцука Акіо (Кіораку Шунсуй), Хіяма Нобуюкі (Мадараме Ікаку), Мацутані Кая (Мацумото Ранґіку), Ясумото Хірокі (Садо Ясутора), Кавакамі Томоко (Сой Фон), Ішікава Хідео (Укітаке Джюушіро), Мікі Шінчіро (Урахара Кісуке), Цукада Масаакі (Ямамото Ґенрюусай Шіґекуні), Тачікі Фуміхіко (Заракі Кенпачі), Юкіно Сацукі (Шіхоін Йоруічі), Хісакава Ая (Інь), Юкана (Янь) та інші.

Сюжет:
У Товаристві душ чергова біда: невідомі викрадають Королівську печатку, а шініґамі 10-го загону під керівництвом Хіцугаї Тошіро, які охороняли її, виявляються безсилими перед нападниками. Королівська печатка - потужний артефакт, здатний переміщувати свого власника (або будь-яких його ворогів) в той часовий проміжок і просторовий вимір, який він обере.
Хіцуґая, не дочекавшись наказу "згори" кидається по слідах викрадачів. Голова Ґотей-13 негайно оголошує відступника «поза законом» і готується розформувати 10-й загін. Тим часом хтось з Хьорінмару в руках нападає на капітана Кіораку і ранить його.
Невже Хіцуґая і справді зрадник? Розсудливий Кучіки Бьякуя висловлює здогад про занпакто-близнюків. А з глибоких архівів Товариства душ починає повільно випливати образ Кусаки Соуджіро - товариша Хіцуґаї з Академії Шініґамі і його найкращого друга...

© MadGuy


Відео:
якість:
контейнер:
кодек:
частота кадрів: 23.976 кадрів/сек.
розмір кадру: 1272х688 пікс.
бітрейт: ~1800 кбіт/сек.
бітність: 10 біт.

Аудіо:
мова: українська, двоголосе закадрове озвучення.
кодек:
кількість каналів: 2.0
бітрейт: 192 кбіт/сек.
частота: 48000 Гц

Джерело озвучення: AniUA

текст читали: Henessi та Maslinka
переклад: MadGuy
таймінг звуку: Kohinsan
робота зі звуком: Arch_Enemy

Джерело релізу: AniUA
Скріншоти
Скрінлист
MI
General
Unique ID : 208768174725954329431859687673940916611 (0x9D0F49B4BB0069AA98910F62E603B983)
Complete name : D:\Anime\[AniUA]_BLEACH_[UKR]\[AniUA]_[Movie_02]_Gekijouban_Bleach_-_The_DiamondDust_Rebellion_[2007]_[BDRip_x264_Hi10P_1272x688_AC3]_[Hennessi_and_Maslinka].
Format :
Format version : Version 4 / Version 2
File size : 1.29 GiB
Duration : 1 h 32 min
Overall bit rate : 1 986 kb/s
Encoded date : UTC 2017-04-18 20:11:00
Writing application : mkvmerge v10.0.0 ('To Drown In You') 64bit
Writing library : libebml v1.3.4 + libmatroska v1.4.5

Video
ID : 1
Format : AVC
Format/Info : Advanced Video Codec
Format profile : High 4:4:4 [email protected]
Format settings, CABAC : Yes
Format settings, ReFrames : 16 frames
Codec ID : V_MPEG4/ISO/AVC
Duration : 1 h 32 min
Bit rate : 1 792 kb/s
Width : 1 272 pixels
Height : 688 pixels
Display aspect ratio : 1.85:1
Frame rate mode : Constant
Frame rate : 23.976 (24000/1001) FPS
Color space : YUV
Chroma subsampling : 4:4:4
Bit depth : 10 bits
Scan type : Progressive
Bits/(Pixel*Frame) : 0.085
Stream size : 1.16 GiB (90%)
Title : http://aniua.com/
Writing library : core 125 r0+2868M 54929fe
Encoding settings : cabac=1 / ref=16 / deblock=1:0:0 / analyse=0x3:0x133 / me=umh / subme=10 / psy=1 / psy_rd=1.00:0.00 / mixed_ref=1 / me_range=32 / chroma_me=1 / trellis=2 / 8x8dct=1 / cqm=0 / deadzone=21,11 / fast_pskip=0 / chroma_qp_offset=4 / threads=1 / lookahead_threads=1 / sliced_threads=0 / nr=0 / decimate=0 / interlaced=0 / bluray_compat=0 / constrained_intra=0 / bframes=8 / b_pyramid=2 / b_adapt=2 / b_bias=0 / direct=3 / weightb=1 / open_gop=0 / weightp=2 / keyint=250 / keyint_min=23 / scenecut=40 / intra_refresh=0 / rc_lookahead=60 / rc=crf / mbtree=1 / crf=15.0 / qcomp=0.60 / qpmin=0 / qpmax=81 / qpstep=4 / ip_ratio=1.40 / aq=2:1.00
Language : Japanese
Default : Yes
Forced : Yes
Color range : Limited
Color primaries : BT.709
Matrix coefficients : BT.709

Audio
ID : 2
Format : AC-3
Format/Info : Audio Coding 3
Format settings, Endianness : Big
Codec ID : A_AC3
Duration : 1 h 32 min
Bit rate mode : Constant
Bit rate : 192 kb/s
Channel(s) : 2 channels
Channel positions : Front: L R
Sampling rate : 48.0 kHz
Frame rate : 31.250 FPS (1536 spf)
Bit depth : 16 bits
Compression mode : Lossy
Stream size : 127 MiB (10%)
Title : Hennessi and Maslinka
Language : Ukrainian
Service kind : Complete Main
Default : Yes
Forced : Yes

Якщо вам подобаються наші релізи, і є бажання чимось допомогти проекту, то будемо раді, якщо ви підтримаєте нас фінансово. І, якщо хочете подякувати за якесь конкретне аніме, або форсувати процес озвучення, прохання вказати у коментарі до переказу.
Підтримати/подякувати «AniUA»
Також у нас можна замовити переклад або озвучення
.


Авторський реліз (завантажувати можна без реєстрації)
 Трекер:    Зареєстрований   

Завантажити / скачати аніме українською



відео для новачків



 Зареєстрований:   2017-04-20 22:25
 Розмір:   1.29 GB 
 Оцінка аніме:   9.7/10 (Голосів: 3)
   
Ваш часовий пояс: GMT + 2 Години

Нова тема   Відповісти