Бліч: Повстання алмазного пилу. Інший Хьорінмару / Gekijouban Bleach: The DiamondDust Rebellion Mou Hitotsu no Hyourinmaru / 劇場版 BLEACH The DiamondDust Rebellion もう一つの氷輪丸 [2007] 1080p Ukr/Jap

Нові коментарі

Нова тема   Відповісти
Автор Повідомлення
Arch Enemy 
VIP


З нами з: 30.08.12
Востаннє: 23.10.17
Повідомлень: 891

2017-04-20 23:10  
Бліч: Повстання алмазного пилу. Інший Хьорінмару / Gekijouban Bleach: The DiamondDust Rebellion Mou Hitotsu no Hyourinmaru



Країна: Японія
Прем'єра: 22.12.2007
Жанр: пригоди, шьонен, комедія, драма
Аніместудія: Studio Pierrot

Тривалість: 01год. 32хв. 45сек.

Режисер: Абе Норіюкі
Автор Оригіналу: Кубо Тайте
Сейю: Моріта Масаказу (Куросакі Ічіґо), Ішіда Акіра (Кусака Соуджіро), Іто Кентаро (Абарай Ренджі), Фукуяма Джун (Аясеґава Юмічіка), Паку Ромі (Хіцуґая Тошіро), Орікаса Фуміко (Кучікі Рукія), Ніші Рінтаро (Іба Тецузаемон), Мацуока Юкі (Іное Оріхіме), Суґіяма Норіакі (Ішіда Урюу), Сакурай Такахіро (Кіра Ізуру), Окіаю Рьотаро (Кучікі Б'якуя), Морікава Тошіюкі (Куросакі Ішін), Куґімія Ріе (Куросакі Карін), Сена Аюмі (Куросакі Юзу), Оохара Саяка (Куросакі Масакі), Накао Рюусей (Куроцучі Маюрі), Мочізукі Хісайо (Кусаджіші Ячіру), Ооцука Акіо (Кіораку Шунсуй), Хіяма Нобуюкі (Мадараме Ікаку), Мацутані Кая (Мацумото Ранґіку), Ясумото Хірокі (Садо Ясутора), Кавакамі Томоко (Сой Фон), Ішікава Хідео (Укітаке Джюушіро), Мікі Шінчіро (Урахара Кісуке), Цукада Масаакі (Ямамото Ґенрюусай Шіґекуні), Тачікі Фуміхіко (Заракі Кенпачі), Юкіно Сацукі (Шіхоін Йоруічі), Хісакава Ая (Інь), Юкана (Янь) та інші.

Сюжет:
У Товаристві душ чергова біда: невідомі викрадають Королівську печатку, а шініґамі 10-го загону під керівництвом Хіцугаї Тошіро, які охороняли її, виявляються безсилими перед нападниками. Королівська печатка - потужний артефакт, здатний переміщувати свого власника (або будь-яких його ворогів) в той часовий проміжок і просторовий вимір, який він обере.
Хіцуґая, не дочекавшись наказу "згори" кидається по слідах викрадачів. Голова Ґотей-13 негайно оголошує відступника «поза законом» і готується розформувати 10-й загін. Тим часом хтось з Хьорінмару в руках нападає на капітана Кіораку і ранить його.
Невже Хіцуґая і справді зрадник? Розсудливий Кучіки Бьякуя висловлює здогад про занпакто-близнюків. А з глибоких архівів Товариства душ починає повільно випливати образ Кусаки Соуджіро - товариша Хіцуґаї з Академії Шініґамі і його найкращого друга...

© MadGuy

Відео:
якість:
контейнер:
кодек:
частота кадрів: 23.976 кадрів/сек.
розмір кадру: 1920х1080 пікс.
бітрейт: ~4300 кбіт/сек.
бітність: 8 біт.

Аудіо # 1:
мова: українська, двоголосе закадрове озвучення.
кодек:
кількість каналів: 5.1
бітрейт: 1509 кбіт/сек.
частота: 48000 Гц

Аудіо # 2:
мова: японська, оригінал
кодек:
кількість каналів: 5.1
бітрейт: 1509 кбіт/сек.
частота: 48000 Гц

Джерело озвучення: AniUA

текст читали: Henessi та Maslinka
переклад: MadGuy
таймінг звуку: Kohinsan
робота зі звуком: Arch_Enemy

Джерело релізу: AniUA
Скріншоти
Скрінлист
MI
General
Unique ID : 251244450520320743856722202194294415087 (0xBD03EBCAB51BC400ACBE9DCF97AD1EEF)
Complete name : D:\Anime\[AniUA]_BLEACH_[UKR]\[AniUA]_[Movie_02]_Gekijouban_Bleach_-_The_DiamondDust_Rebellion_[2007]_[BDRip_x264_1920x1080_DTS]_[UKR_JAP]_[Hennessi_and_Maslinka].
Format :
Format version : Version 4 / Version 2
File size : 4.73 GiB
Duration : 1 h 32 min
Overall bit rate : 7 299 kb/s
Movie name : Gekijouban Bleach: The DiamondDust Rebellion Mou Hitotsu no Hyourinmaru
Encoded date : UTC 2017-04-19 20:28:07
Writing application : mkvmerge v10.0.0 ('To Drown In You') 64bit
Writing library : libebml v1.3.4 + libmatroska v1.4.5

Video
ID : 1
Format : AVC
Format/Info : Advanced Video Codec
Format profile : [email protected]
Format settings, CABAC : Yes
Format settings, ReFrames : 4 frames
Codec ID : V_MPEG4/ISO/AVC
Duration : 1 h 32 min
Bit rate : 4 279 kb/s
Width : 1 920 pixels
Height : 1 080 pixels
Display aspect ratio : 1.85:1
Original display aspect rat : 16:9
Frame rate mode : Constant
Frame rate : 23.976 (24000/1001) FPS
Color space : YUV
Chroma subsampling : 4:2:0
Bit depth : 8 bits
Scan type : Progressive
Bits/(Pixel*Frame) : 0.086
Stream size : 2.77 GiB (59%)
Title : http://aniua.com/
Writing library : core 116 r2074 2641b9e
Encoding settings : cabac=1 / ref=3 / deblock=1:0:0 / analyse=0x3:0x113 / me=hex / subme=7 / psy=1 / psy_rd=1.00:0.00 / mixed_ref=1 / me_range=16 / chroma_me=1 / trellis=1 / 8x8dct=1 / cqm=0 / deadzone=21,11 / fast_pskip=1 / chroma_qp_offset=-2 / threads=12 / sliced_threads=0 / nr=0 / decimate=1 / interlaced=0 / bluray_compat=0 / constrained_intra=0 / bframes=3 / b_pyramid=2 / b_adapt=1 / b_bias=0 / direct=1 / weightb=1 / open_gop=0 / weightp=2 / keyint=250 / keyint_min=23 / scenecut=40 / intra_refresh=0 / rc_lookahead=40 / rc=crf / mbtree=1 / crf=17.0 / qcomp=0.60 / qpmin=0 / qpmax=69 / qpstep=4 / ip_ratio=1.40 / aq=1:1.00
Language : Japanese
Default : Yes
Forced : Yes

Audio #1
ID : 2
Format :
Format/Info : Digital Theater Systems
Mode : 16
Format settings, Endianness : Big
Codec ID : A_DTS
Duration : 1 h 32 min
Bit rate mode : Constant
Bit rate : 1 509 kb/s
Channel(s) : 6 channels
Channel positions : Front: L C R, Side: L R, LFE
Sampling rate : 48.0 kHz
Frame rate : 93.750 FPS (512 spf)
Bit depth : 24 bits
Compression mode : Lossy
Stream size : 1 001 MiB (21%)
Title : Hennessi and Maslinka
Language : Ukrainian
Default : Yes
Forced : Yes

Audio #2
ID : 3
Format :
Format/Info : Digital Theater Systems
Mode : 16
Format settings, Endianness : Big
Codec ID : A_DTS
Duration : 1 h 32 min
Bit rate mode : Constant
Bit rate : 1 509 kb/s
Channel(s) : 6 channels
Channel positions : Front: L C R, Side: L R, LFE
Sampling rate : 48.0 kHz
Frame rate : 93.750 FPS (512 spf)
Bit depth : 16 bits
Compression mode : Lossy
Stream size : 1 001 MiB (21%)
Title : Original
Language : Japanese
Default : No
Forced : No


Авторський реліз (завантажувати можна без реєстрації)
 Трекер:    Зареєстрований   

Завантажити / скачати аніме українською



відео для новачків



 Зареєстрований:   2017-04-20 23:10
 Розмір:   4.73 GB 
 Оцінка аніме:   9.8/10 (Голосів: 6)
   
Ваш часовий пояс: GMT + 2 Години

Нова тема   Відповісти