Лицарі Некзо Найтс / Lego Nexo Knights (Сезон 3) (2016) 720p

Нові коментарі

Нова тема   Відповісти
Автор Повідомлення
sergiyko.5 
VIP


З нами з: 25.02.16
Востаннє: 24.04.17
Повідомлень: 718

2017-04-20 23:05  
Лицарі Некзо Найтс / Lego Nexo Knights (Сезон 3) (2016) 720p

Лицарі Некзо Найтс / Lego Nexo Knights (Сезон 3) (2016) 720p

Жанр: дитячий, фантастика, казка, пригодницький
Країна: Данія
Кінокомпанія: The Lego Group, M2 Entertainment Wilbros
Режисер: Дейв Осборн
Актори: Майкл Адамтвайт, Кетлін Бар, Гарі Чалк, Майкл Дейнжерфілд, Браян Драммонд

Сюжет:
У королівстві Найтоні панував лад і спокій, піддані короля любили і прославляли. Але несподівано над королівством нависли хмари – королівський блазень Джестро знайшов Книгу Монстрів і перейшов на темну сторону зла. Книга таїла в собі страшну силу, в ній від першої до останньої сторінки ховалося суцільне зло. Блазень Джестро, під впливом Книги Монстрів, створив військо лютих чудовиськ, і за його підтримки хотів заволодіти Найтоном і привласнити собі багатства королівства. Тепер вся надія на випускників Лицарської Академії Некзо, бо тільки вони здатні протистояти Джестро та його армії монстрів.
Разом із голографічним чарівником Мерлоком вони мандруватимуть мобільною фортецею Фортрекс і за допомогою своїх щитів завантажуватимуть дивовижні некзо-сили, здатні подолати злого Джестро та книгу монстрів. Та чи достатньо буде цих сил, аби врятувати Найтон і здобути перемогу над вогняними демонами?




Тривалість : 1 серія: 22:00 (цілком серій: 10)
Якість :

Відео : кодек: розмір кадру: 1280 х 720 бітрейт: 2800 кб/с
Аудіо : мова: українська переклад: професійний дубльований кодек: 2.0 бітрейт: 192 кб/с
Джерело озвучення:
Перелік серій:
01 Хмара
02 Трішки іржавий
03 Гора Громовдар
04 Жахливе невезіння
05 Буря над скелястим лісом
06 Пригоди у горах
07 Лицар у музеї
08 Масаж гарячім каміння
09 Гірше не буває
10 В бій
Про файл:
General
Unique ID : 239214590441690803301226838844162180806 (0xB3F70DE5B9FB700F8441F732520006C6)
Complete name : E:\MULTFILMS\Lego Nexo Knights\Nexo Knights S03 720p\Nexo.Knights.S03E01.The.Cloud.720p..Ukr.
Format :
Format version : Version 4 / Version 2
File size : 464 MiB
Duration : 22mn 0s
Overall bit rate : 2 949 Kbps
Movie name : S03E01 The Cloud by sergiyko
Encoded date : UTC 2017-04-20 16:33:42
Writing application : mkvmerge v9.8.0 ('Kuglblids') 64bit
Writing library : libebml v1.3.4 + libmatroska v1.4.5
DURATION : 00:21:59.872000000
NUMBER_OF_FRAMES : 41246
NUMBER_OF_BYTES : 42235904
_STATISTICS_WRITING_APP : mkvmerge v9.8.0 ('Kuglblids') 64bit
_STATISTICS_WRITING_DATE_UTC : 2017-04-20 16:33:42
_STATISTICS_TAGS : BPS DURATION NUMBER_OF_FRAMES NUMBER_OF_BYTES

Video
ID : 1
Format : AVC
Format/Info : Advanced Video Codec
Format profile : [email protected]
Format settings, CABAC : Yes
Format settings, ReFrames : 5 frames
Codec ID : V_MPEG4/ISO/AVC
Duration : 22mn 0s
Bit rate : 2 634 Kbps
Nominal bit rate : 3 584 Kbps
Width : 1 280 pixels
Height : 720 pixels
Display aspect ratio : 16:9
Frame rate mode : Constant
Frame rate : 24.000 fps
Color space : YUV
Chroma subsampling : 4:2:0
Bit depth : 8 bits
Scan type : Progressive
Bits/(Pixel*Frame) : 0.119
Stream size : 415 MiB (89%)
Title : S03E01 The Cloud
Writing library : core 138 r2358 9e941d1
Encoding settings : cabac=1 / ref=5 / deblock=1:0:0 / analyse=0x1:0x111 / me=umh / subme=8 / psy=1 / psy_rd=1.00:0.00 / mixed_ref=1 / me_range=16 / chroma_me=1 / trellis=1 / 8x8dct=0 / cqm=0 / deadzone=21,11 / fast_pskip=1 / chroma_qp_offset=-2 / threads=6 / lookahead_threads=1 / sliced_threads=0 / nr=0 / decimate=1 / interlaced=0 / bluray_compat=0 / constrained_intra=0 / bframes=3 / b_pyramid=2 / b_adapt=2 / b_bias=0 / direct=3 / weightb=1 / open_gop=0 / weightp=2 / keyint=60 / keyint_min=20 / scenecut=40 / intra_refresh=0 / rc_lookahead=50 / rc=cbr / mbtree=1 / bitrate=3584 / ratetol=1.0 / qcomp=0.60 / qpmin=0 / qpmax=69 / qpstep=4 / vbv_maxrate=3584 / vbv_bufsize=1000 / nal_hrd=none / ip_ratio=1.40 / aq=1:1.00
Language : English
Default : Yes
Forced : No

Audio
ID : 2
Format : AC-3
Format/Info : Audio Coding 3
Mode extension : CM (complete main)
Format settings, Endianness : Big
Codec ID : A_AC3
Duration : 22mn 0s
Bit rate mode : Constant
Bit rate : 256 Kbps
Channel(s) : 2 channels
Channel positions : Front: L R
Sampling rate : 48.0 KHz
Compression mode : Lossy
Delay relative to video : -83ms
Stream size : 40.3 MiB (9%)
Title : DUB 2ch | ПлюсПлюс
Language : Ukrainian
Default : Yes
Forced : No

Скріншоти:



Автор записів та синхрону: sergiyko



Бронзовий реліз (на рейтинг впливає 75% завантаженого)
 Трекер:    Зареєстрований   

Завантажити / скачати мультфільм українською



відео для новачків



 Зареєстрований:   2017-04-20 23:05
 Розмір:   4.5 GB 
 Оцінка мультсеріалу:   10/10 (Голосів: 2)
   
Ваш часовий пояс: GMT + 2 Години

Нова тема   Відповісти