Пригоди Діґімонів Три / Digimon Adventure tri / デジモンアドベンチャーtri. (1-2 із хх) (2015-2017) 720p Ukr/Jap | sub Ukr

Нові коментарі

Нова тема   Відповісти
Автор Повідомлення
Anonymous 







2017-04-20 21:25  
Пригоди Діґімонів Три / Digimon Adventure tri / デジモンアドベンチャーtri. (1-2 із хх) (2015-2017) 720p Ukr/Jap | sub Ukr

Пригоди Діґімонів Три / Digimon Adventure tri / デジモンアドベンチャーtri. (1-2 із хх) (2015-2017) 720p Ukr/Jap | sub Ukr


Жанр: пригоди, комедія, драма
Країна: Японія



Кінокомпанія: Toei Animation
Режисер: Мотонаґа Кейтароо
Ролі озвучують: Ханае Нацукі, Хосоя Йошімаса, Ічімічі Мао, Енокі Джюня

Сюжет:
Минуло шість років з того літа коли Яґамі та решта Обраних дітей потрапили у Цифровий світ. Після битви з Веліал Вандемоном життя дітей повернулося у звичне русло. Іспити, фестивалі, рок-групи... Та все змінилося коли в Одайбі раптово з'явився Куваґамон.


Тривалість: 1 серія: 24:00 (цілком серій: хх)
Перелік серій

1. Фільм 1. Об'єднання - частина 1
1. Фільм 1. Об'єднання - частина 2
Якість:
Відео:
кодек:
розмір кадру: 1280 х 720
бітрейт: 1 776 кб/с

Аудіо # 1:
мова: українська
переклад: багатоголосий закадровий
кодек: 2.0
бітрейт: ~192 кб/с

Аудіо # 2:
мова: японська
переклад: оригінал
кодек: 2.0
бітрейт: ~128 кб/с

Субтитри:
мова: українська (написи)
тип: програмні (м'які)
формат: *.ass

Субтитри:
мова: українська (повні)
тип: програмні (м'які)
формат: *.ass
Info
General
Unique ID : 205524215912576485866442930782525346493 (0x9A9E86302775BC3EB3045676B5EA52BD)
Complete name : C:\Users\Sensetivity\Downloads\[Робота Голосом] Пригоди Дігімонів Три (Digimon Adventure tri) [01 з XX] [ 720p 2.0].
Format :
Format version : Version 4 / Version 2
File size : 359 MiB
Duration : 24 min 2 s
Overall bit rate : 2 089 kb/s
Encoded date : UTC 2017-04-07 20:05:57
Writing application : mkvmerge v9.9.0 ('Pick Up') 64bit
Writing library : libebml v1.3.4 + libmatroska v1.4.5
Attachments : OpenSans-Semibold.ttf

Video
ID : 1
Format : AVC
Format/Info : Advanced Video Codec
Format profile : [email protected]
Format settings, CABAC : Yes
Format settings, ReFrames : 6 frames
Codec ID : V_MPEG4/ISO/AVC
Duration : 24 min 1 s
Bit rate : 1 776 kb/s
Width : 1 280 pixels
Height : 720 pixels
Display aspect ratio : 16:9
Frame rate mode : Constant
Frame rate : 23.976 (23976/1000) FPS
Color space : YUV
Chroma subsampling : 4:2:0
Bit depth : 8 bits
Scan type : Progressive
Bits/(Pixel*Frame) : 0.080
Stream size : 304 MiB (85%)
Writing library : core 120 r2120 0c7dab9
Encoding settings : cabac=1 / ref=6 / deblock=1:1:1 / analyse=0x3:0x113 / me=umh / subme=8 / psy=1 / psy_rd=0.40:0.00 / mixed_ref=1 / me_range=16 / chroma_me=1 / trellis=1 / 8x8dct=1 / cqm=0 / deadzone=21,11 / fast_pskip=1 / chroma_qp_offset=-2 / threads=4 / sliced_threads=0 / nr=0 / decimate=1 / interlaced=0 / bluray_compat=0 / constrained_intra=0 / bframes=3 / b_pyramid=2 / b_adapt=2 / b_bias=0 / direct=3 / weightb=1 / open_gop=0 / weightp=2 / keyint=250 / keyint_min=23 / scenecut=40 / intra_refresh=0 / rc_lookahead=50 / rc=2pass / mbtree=1 / bitrate=1776 / ratetol=1.0 / qcomp=0.60 / qpmin=0 / qpmax=69 / qpstep=4 / cplxblur=20.0 / qblur=0.5 / vbv_maxrate=3552 / vbv_bufsize=8880 / nal_hrd=none / ip_ratio=1.40 / aq=1:0.60
Language : Japanese
Default : Yes
Forced : No

Audio #1
ID : 2
Format :
Format/Info : Advanced Audio Codec
Format profile : LC
Codec ID : A_AAC
Duration : 24 min 1 s
Bit rate : 186 kb/s
Channel(s) : 2 channels
Channel positions : Front: L R
Sampling rate : 48.0 kHz
Frame rate : 46.875 FPS (1024 spf)
Compression mode : Lossy
Delay relative to video : 945 ms
Stream size : 31.9 MiB (9%)
Title : Українська
Language : Ukrainian
Default : Yes
Forced : No

Audio #2
ID : 3
Format :
Format/Info : Advanced Audio Codec
Format profile : LC
Codec ID : A_AAC
Duration : 24 min 1 s
Bit rate : 128 kb/s
Channel(s) : 2 channels
Channel positions : Front: L R
Sampling rate : 44.1 kHz
Frame rate : 43.066 FPS (1024 spf)
Compression mode : Lossy
Stream size : 22.0 MiB (6%)
Title : Японська
Language : Japanese
Default : No
Forced : No

Text #1
ID : 4
Format : ASS
Codec ID : S_TEXT/ASS
Codec ID/Info : Advanced Sub Station Alpha
Duration : 20 min 18 s
Bit rate : 723 b/s
Count of elements : 489
Compression mode : Lossless
Stream size : 108 KiB (0%)
Title : Українські (написи)
Language : Ukrainian
Default : Yes
Forced : No

Text #2
ID : 5
Format : ASS
Codec ID : S_TEXT/ASS
Codec ID/Info : Advanced Sub Station Alpha
Duration : 23 min 40 s
Bit rate : 710 b/s
Count of elements : 735
Compression mode : Lossless
Stream size : 123 KiB (0%)
Title : Українські (повні)
Language : Ukrainian
Default : No
Forced : No
Скріншоти






Реліз від:

Переклад: Sensitivity
Озвучення: Бостон, Котявр, Ейдж, Артимко, Волкісса, Kate Lem, Sensitivity
Робота зі звуком: Ейдж
Постер: SigridMarialer

Джерело:
Особиста оцінка: 6 - третій сорт - не брак


Авторський реліз (завантажувати можна без реєстрації)
 Трекер:    Зареєстрований   

Завантажити / скачати аніме українською



відео для новачків



 Зареєстрований:   2017-05-08 23:02
 Розмір:   724 MB 
 Оцінка аніме:   3/10 (Голосів: 13)
   
bot 
робот


З нами з: 30.09.07
Востаннє: 26.05.05
Повідомлень: 17137

2017-04-20 21:25  
Тему перенесено з Аніме до форуму Анонси релізів


NeetScrool

bot 
робот


З нами з: 30.09.07
Востаннє: 26.05.05
Повідомлень: 17137

2017-04-20 21:36  
Тему перенесено з Анонси релізів до форуму Аніме


NeetScrool

Anonymous 







2017-04-20 21:40  
Початок покладено.
leshaloh 
Свій


З нами з: 08.03.11
Востаннє: 21.07.17
Повідомлень: 57

2017-04-21 08:22  
Сподіваюсь, буде не так, як у ANIUA з першим сезоном.
Ліхтарник 
VIP


З нами з: 16.09.14
Востаннє: 20.07.17
Повідомлень: 589

2017-04-21 10:12  
leshaloh
над першим працювали УкрДаб

Jani307 
Свій


З нами з: 09.06.14
Востаннє: 17.07.17
Повідомлень: 67

2017-04-21 12:21  
Дякую. Дивився в свій час по телевізору. Дуже сподобалося.
leshaloh 
Свій


З нами з: 08.03.11
Востаннє: 21.07.17
Повідомлень: 57

2017-04-21 17:57  
Ліхтарник
точно, сплутав)

Чомусь останнім часом на Толоці зовсім поганенько з роздачами нових релізів. Декілька днів доводиться чекати, поки завантаження зрушить з мертвої точки.

ImfromUkraine 
VIP


З нами з: 18.02.12
Востаннє: 20.07.17
Повідомлень: 279

2017-04-24 23:44  
у назві треба писати кількість викладених серій)
Ваш часовий пояс: GMT + 2 Години

Нова тема   Відповісти