Мародери / Marauders (2016) Remux 1080p Ukr/Eng | Sub Eng

Нові коментарі

Нова тема   Відповісти
Автор Повідомлення
Anonymous 







2017-04-20 19:06  
Мародери / Marauders (2016) Remux 1080p Ukr/Eng | Sub Eng



Жанр: бойовик, трилер, кримінальний
Країна: Канада



Кінокомпанія: Emmett/Furla/Oasis Films (EFO Films), 4th Wall Entertainment, Grindstone Entertainment Group, Highland Film Group, Lionsgate Home Entertainment
Режисер: Стівен С. Міллер / Steven C. Miller
Актори: Брюс Вілліс / Bruce Willis, Крістофер Мелоні / Christopher Meloni, Дейв Батіста / Dave Bautista, Едріан Греньє / Adrian Grenier, Лідія Галл / Lydia Hull, Тайлер Джон Олсон / Tyler Jon Olson, Крістофер Роб Бовен / Christopher Rob Bowen, Річі Ченс / Richie Chance, Тара Голт / Tara Holt, Райан О’Нан / Ryan O'Nan та інші

Сюжет:
Історія про агента ФБР, який вийшов на слід злочинців, які пограбували банк і віддали всі вкрадені гроші на благодійні потреби. Чим далі просувається розслідування, тим більше головний герой переконується в тому, що у власника банку є власні секрети.
Офіційний український трейлер:


Рейтинг MPAA: R - особам до 17 років обов'язкова присутність батьків або дорослого опікуна
Вікова категорія: 16+
Тривалість: 01:47:07
Якість: Remux
Відео:
кодек:
розмір кадру: 1920 х 1080
бітрейт: 34518 кб/с

Аудіо # 1:
мова: українська
переклад: багатоголосий закадровий
кодек: 5.1
бітрейт: 384 кб/с

Аудіо # 2:
мова: англійська
переклад: оригінал
кодек: -HD MA 5.1
бітрейт: 3840 кб/с

Аудіо # 3:
мова: англійська
переклад: коментарі режисера Стівена Міллер та оператора Брендона Кокса
кодек: 2.0
бітрейт: 192 кб/с

Субтитри # 1-2:
мова: англійська (повні, SHD)
тип: пререндерні
формат: PGS

Збережено оригінальні розділи, як на Blu-ray
Info
Код:
Complete name               : Marauders (2016) [Ukr,Eng sub.Eng] Remux 1080p [Hurtom].
Format                      :
Format version              : Version 4 / Version 2
File size                   : 29.1 GiB
Duration                    : 1 h 47 min
Overall bit rate mode       : Variable
Overall bit rate            : 38.9 Mb/s
Movie name                  : Мародери / Marauders (2016) [Ukr,Eng sub.Eng] Remux 1080p [Hurtom]
Released date               : 2016
Writing library             : libebml v1.3.4 + libmatroska v1.4.5
Cover                       : Yes
Comment                     : http://www.imdb.com/title/tt3963816/
Attachments                 : cover.jpg
ARTIST                      : Брюс Вілліс / Bruce Willis, Крістофер Мелоні / Christopher Meloni, Дейв Батіста / Dave Bautista, Едріан Греньє / Adrian Grenier, Лідія Галл / Lydia Hull, Тайлер Джон Олсон / Tyler Jon Olson, Крістофер Роб Бауен / Christopher Rob Bowen, Річі Ченс / Richie Chance, Тара Голт / Tara Holt, Райан О’Нан / Ryan O'Nan та інші
DIRECTOR                    : Стівен С. Міллер / Steven C. Miller
GENRE                       : бойовик, трилер, кримінальний
SYNOPSIS                    : Історія про агента ФБР, який нападає на слід злочинців, які пограбували банк і віддали всі вкрадені гроші на благодійні потреби. Чим далі просувається розслідування, тим більше головний герой переконується в тому, що у власника банку є власні секрети.
Url                         : https://toloka.to/t81464

Video
ID                          : 1
Format                      : AVC
Format/Info                 : Advanced Video Codec
Format profile              : High@L4.1
Format settings, CABAC      : Yes
Format settings, ReFrames   : 4 frames
Codec ID                    : V_MPEG4/ISO/AVC
Duration                    : 1 h 47 min
Bit rate mode               : Variable
Bit rate                    : 34.5 Mb/s
Maximum bit rate            : 37.0 Mb/s
Width                       : 1 920 pixels
Height                      : 1 080 pixels
Display aspect ratio        : 16:9
Frame rate mode             : Constant
Frame rate                  : 23.976 (24000/1001) FPS
Color space                 : YUV
Chroma subsampling          : 4:2:0
Bit depth                   : 8 bits
Scan type                   : Progressive
Bits/(Pixel*Frame)          : 0.693
Stream size                 : 25.8 GiB (89%)
Title                       : Мародери / Marauders (2016) Remux 1080p [HDClub, BLURAY-LAZERS]
Language                    : English
Default                     : Yes
Forced                      : No

Audio #1
ID                          : 2
Format                      : AC-3
Format/Info                 : Audio Coding 3
Format settings, Endianness : Big
Codec ID                    : A_AC3
Duration                    : 1 h 47 min
Bit rate mode               : Constant
Bit rate                    : 384 kb/s
Channel(s)                  : 6 channels
Channel positions           : Front: L C R, Side: L R, LFE
Sampling rate               : 48.0 kHz
Frame rate                  : 31.250 FPS (1536 spf)
Bit depth                   : 16 bits
Compression mode            : Lossy
Stream size                 : 294 MiB (1%)
Title                       : MVO [iTunes Russia] 5.1 384 Kbps
Language                    : Ukrainian
Service kind                : Complete Main
Default                     : Yes
Forced                      : Yes

Audio #2
ID                          : 3
Format                      :
Format/Info                 : Digital Theater Systems
Format profile              : MA / Core
Mode                        : 16
Format settings, Endianness : Big
Codec ID                    : A_DTS
Duration                    : 1 h 47 min
Bit rate mode               : Variable / Constant
Bit rate                    : 3 840 kb/s / 1 509 kb/s
Channel(s)                  : 6 channels
Channel positions           : Front: L C R, Side: L R, LFE
Sampling rate               : 48.0 kHz
Frame rate                  : 93.750 FPS (512 spf)
Bit depth                   : 24 bits
Compression mode            : Lossless / Lossy
Stream size                 : 2.89 GiB (10%)
Title                       : Original, DTH-HD MA 5.1 3860 Kbps
Language                    : English
Default                     : No
Forced                      : No

Audio #3
ID                          : 4
Format                      : AC-3
Format/Info                 : Audio Coding 3
Mode                        : Dolby Digital
Format settings, Endianness : Big
Codec ID                    : A_AC3
Duration                    : 1 h 47 min
Bit rate mode               : Constant
Bit rate                    : 192 kb/s
Channel(s)                  : 2 channels
Channel positions           : Front: L R
Sampling rate               : 48.0 kHz
Frame rate                  : 31.250 FPS (1536 spf)
Bit depth                   : 16 bits
Compression mode            : Lossy
Stream size                 : 147 MiB (0%)
Title                       : Commentary with Director Steven C. Miller and Cinematographer Brandon Cox, 2.0 192 Kbps
Language                    : English
Service kind                : Complete Main
Default                     : No
Forced                      : No

Text #1
ID                          : 5
Format                      : PGS
Muxing mode                 : zlib
Codec ID                    : S_HDMV/PGS
Codec ID/Info               : Picture based subtitle format used on BDs/HD-DVDs
Duration                    : 1 h 37 min
Bit rate                    : 17.4 kb/s
Count of elements           : 2824
Stream size                 : 12.2 MiB (0%)
Title                       : Eng full
Language                    : English
Default                     : No
Forced                      : No

Text #2
ID                          : 6
Format                      : PGS
Muxing mode                 : zlib
Codec ID                    : S_HDMV/PGS
Codec ID/Info               : Picture based subtitle format used on BDs/HD-DVDs
Duration                    : 1 h 39 min
Bit rate                    : 18.4 kb/s
Count of elements           : 3068
Stream size                 : 13.0 MiB (0%)
Title                       : Eng SDH
Language                    : English
Default                     : No
Forced                      : No

Menu
00:00:00.000                : en:Chapter 1
00:05:19.401                : en:Chapter 2
00:11:57.716                : en:Chapter 3
00:17:46.105                : en:Chapter 4
00:24:42.646                : en:Chapter 5
00:30:33.873                : en:Chapter 6
00:39:07.677                : en:Chapter 7
00:46:14.980                : en:Chapter 8
00:51:49.356                : en:Chapter 9
00:55:58.271                : en:Chapter 10
01:02:08.014                : en:Chapter 11
01:09:21.698                : en:Chapter 12
01:16:38.594                : en:Chapter 13
01:22:48.837                : en:Chapter 14
01:28:22.171                : en:Chapter 15
01:34:08.350                : en:Chapter 16


Джерело: &

ЗАЛИШАЙТЕСЬ ЯКОМОГА ДОВШЕ НА РОЗДАЧІ
ЗАВАНТАЖИВ САМ - ДАЙ ЗАВАНТАЖИТИ ІНШИМ!


Золотий реліз (завантажене не впливає на рейтинг)
 Трекер:    Зареєстрований   

Завантажити / скачати фільм українською



відео для новачків



 Зареєстрований:   2017-04-20 21:08
 Розмір:   29.14 GB 
 Оцінка фільму:   3.9/10 (Голосів: 17)
   
Інші релізи
   Мародери / Marauders (2016) 720p Ukr/Eng | Sub Eng 11FrYkT  5 / 0   4.91 GB   2017-04-20 22:27 
   Мародери / Marauders (2016) AVC Ukr/Eng | Sub Eng 11FrYkT  15 / 0   1.88 GB   2017-04-20 22:15 
   Мародери / Marauders (2016) 1080p Ukr/Eng | Sub Eng Electroz  3 / 0   8.96 GB   2017-04-20 17:58 
   Мародери / Marauders (2016) AngryBirdsUA  22 / 0   1.45 GB   2017-02-03 19:03 
b@nder4ik 
Частий відвідувач


З нами з: 03.12.14
Востаннє: 10.09.17
Повідомлень: 38

2017-04-22 10:37  
я кіношка , можна дивитись?
Anonymous 







2017-04-22 10:47  
b@nder4ik, за відгуками в інших релізах можна раз глянути.
Patriot_ukr 
VIP


З нами з: 06.04.15
Востаннє: 24.09.17
Повідомлень: 1786

2017-04-22 20:15  
b@nder4ik, ви кіношка?Happy
ika1963 
Відео Гуртом - дизайнер
Відео Гуртом - дизайнер


З нами з: 13.05.10
Востаннє: 24.09.17
Повідомлень: 230

2017-04-25 03:59  
дурня повна... хвилин за 30-40 починаєш боротися чи то зі сном, чи то з бажанням щось кинути в сторону екрана. Поліція стогне, ФБР стогне, слава Богу, хоч грабіжники мовчали, але наприкінці фільму і ті почали стогнати. Намішали, накрутили, шмарклі більша частину фільму, "стакан постійно наполовину порожній" - "депресняк" повний, - дві години втраченого часу. Дивився з-за "Горішка", - але він там такий картонний, хоч до стелі клей... Sad (1)
lpershyi 
Попереджень: 2
Попереджень: 2 


З нами з: 04.01.11
Востаннє: 03.08.17
Повідомлень: 2743

2017-04-25 05:58  
Patriot_ukr написано:
ви кіношка?Happy
одна літера "к" у слові як просто невидима Wide grin
Zovmoto 
Частий відвідувач


З нами з: 18.12.12
Востаннє: 25.09.17
Повідомлень: 37

2017-04-27 17:23  
Перша половина тримає в напрузі, а друга нудний затягнутий депресивний провал. 6 із 10 - не рівень Вілліса!
Ваш часовий пояс: GMT + 2 Години

Нова тема   Відповісти