The Hardkiss - Perfection Is a Lie (2017) [FLAC] | Progressive pop / Rock

Нові коментарі

Нова тема   Відповісти
Автор Повідомлення
kolpavel 
VIP


З нами з: 04.05.14
Востаннє: 13.12.17
Повідомлень: 1158

2017-04-20 12:57  
The Hardkiss - Perfection Is a Lie (2017) [FLAC] | Progressive pop / Rock

The Hardkiss - Perfection Is a Lie (2017) [FLAC] | Progressive pop / Rock


Стиль: Progressive pop Rock
Країна, місто: Україна, Київ
Сайти: Офіційний сайт
Видавець: Comp Music Ltd
Виконавці:
Юлія Саніна – спів, тексти, музика
Валерій «Val» Бебко – музика, програмування, гітара
Kreechy – ударні
Роман Скоробагатько – гітара
Віталій Онискевич – клавіші
Пісні:
    01. Organ -0 3:18
    02. Tony, Talk! - 03:35
    03. Doctor Thomases - 04:07
    04. Rain - 03:27
    05. Helpless - 03:36
    06. Антарктида - 03:58
    07. А2 - 00:38
    08. Perfection - 03:55
    09. Closer - 03:59
    10. PiBiP - 04:15
    11. Hammer -04:07
    12. Altair - 04:07

Тривалість: 00:43:08
Мова: англійська (1-5, 7-12), українська (6)
Аудіо-кодек: FLAC
Бітрейт: 725-1143 кб/с
Джерело: Fraps25
Додаткова інформація:
CUE
REM GENRE "Rock, Electronic"
REM DATE 2017
REM DISCID 850A1B0C
PERFORMER "The Hardkiss"
TITLE "Perfection Is a Lie"
FILE "01. Organ.wav" WAVE
TRACK 01 AUDIO
TITLE "Organ"
PERFORMER "The Hardkiss"
INDEX 01 00:00:00
FILE "02. Tony, Talk!.wav" WAVE
TRACK 02 AUDIO
TITLE "Tony, Talk!"
PERFORMER "The Hardkiss"
INDEX 01 00:00:00
FILE "03. Doctor Thomases.wav" WAVE
TRACK 03 AUDIO
TITLE "Doctor Thomases"
PERFORMER "The Hardkiss"
INDEX 01 00:00:00
FILE "04. Rain.wav" WAVE
TRACK 04 AUDIO
TITLE "Rain"
PERFORMER "The Hardkiss"
INDEX 01 00:00:00
FILE "05. Helpless.wav" WAVE
TRACK 05 AUDIO
TITLE "Helpless"
PERFORMER "The Hardkiss"
INDEX 01 00:00:00
FILE "06. Антарктида.wav" WAVE
TRACK 06 AUDIO
TITLE "Антарктида"
PERFORMER "The Hardkiss"
INDEX 01 00:00:00
FILE "07. А2.wav" WAVE
TRACK 07 AUDIO
TITLE "А2"
PERFORMER "The Hardkiss"
INDEX 01 00:00:00
FILE "08. Perfection.wav" WAVE
TRACK 08 AUDIO
TITLE "Perfection"
PERFORMER "The Hardkiss"
INDEX 01 00:00:00
FILE "09. Closer.wav" WAVE
TRACK 09 AUDIO
TITLE "Closer"
PERFORMER "The Hardkiss"
INDEX 01 00:00:00
FILE "10. PiBiP.wav" WAVE
TRACK 10 AUDIO
TITLE "PiBiP"
PERFORMER "The Hardkiss"
INDEX 01 00:00:00
FILE "11. Hammer.wav" WAVE
TRACK 11 AUDIO
TITLE "Hammer"
PERFORMER "The Hardkiss"
INDEX 01 00:00:00
FILE "12. Altair.wav" WAVE
TRACK 12 AUDIO
TITLE "Altair"
PERFORMER "The Hardkiss"
INDEX 01 00:00:00
auCDtect
CUE Corrector v. 8.2.4 / b. 742 (Feb. 16, 2017)
————————————————————————————————————————————————————————————————————————
The HardKiss / Perfection Is a Lie

Folder: The HardKiss - 2017 - Perfection Is a Lie
Audio files:
01. Organ.ape [03:18.747; APE • 958 kbps • 16 bit \ 44100 Hz • stereo; 22,70 MB (23 802 756 B)]
02. Tony, Talk!.ape [03:35.213; APE • 984 kbps • 16 bit \ 44100 Hz • stereo; 25,25 MB (26 473 094 B)]
03. Doctor Thomases.ape [04:07.213; APE • 1017 kbps • 16 bit \ 44100 Hz • stereo; 30,00 MB (31 457 396 B)]
04. Rain.ape [03:27.000; APE • 1007 kbps • 16 bit \ 44100 Hz • stereo; 24,87 MB (26 075 865 B)]
05. Helpless.ape [03:36.973; APE • 973 kbps • 16 bit \ 44100 Hz • stereo; 25,17 MB (26 395 435 B)]
06. Антарктида.ape [03:58.907; APE • 1021 kbps • 16 bit \ 44100 Hz • stereo; 29,11 MB (30 519 201 B)]
07. А2.ape [00:38.720; APE • 966 kbps • 16 bit \ 44100 Hz • stereo; 4,46 MB (4 678 513 B)]
08. Perfection.ape [03:55.493; APE • 1128 kbps • 16 bit \ 44100 Hz • stereo; 31,67 MB (33 211 361 B)]
09. Closer.ape [03:59.987; APE • 1048 kbps • 16 bit \ 44100 Hz • stereo; 30,01 MB (31 464 416 B)]
10. PiBiP.ape [04:15.000; APE • 1039 kbps • 16 bit \ 44100 Hz • stereo; 31,59 MB (33 125 115 B)]
11. Hammer.ape [04:07.000; APE • 987 kbps • 16 bit \ 44100 Hz • stereo; 29,07 MB (30 478 697 B)]
12. Altair.ape [04:07.533; APE • 690 kbps • 16 bit \ 44100 Hz • stereo; 20,36 MB (21 353 656 B)]

Accuracy: -m0

File 01. Organ - 100% CDDA
File 02. Tony, Talk! - 100% CDDA
File 03. Doctor Thomases - 100% CDDA
File 04. Rain - 100% CDDA
File 05. Helpless - 99% CDDA
File 06. Антарктида - 100% CDDA
File 07. А2 - 99% CDDA
File 08. Perfection - 100% CDDA
File 09. Closer - 100% CDDA
File 10. PiBiP - 100% CDDA
File 11. Hammer - 100% CDDA
File 12. Altair - 100% CDDA
————— Summary: —————
These tracks looks like CDDA with probability 100%.
————————————————————————————————————————————————————————————————————————

ANALYZER:
auCDtect: CD records authenticity detector, version 0.8.2
Copyright (c) 2004 Oleg Berngardt. All rights reserved.
Copyright (c) 2004 Alexander Djourik. All rights reserved.

Time elapsed: 2 m 51 s
Log created at April 20, 2017 10:56:27

=== 33D5754C2DFE6E20E122AB361AEEAB3EEA5F696C16EE74F080CFB842C697B3B7 ===
Конвертував з Monkey's Audio Compressor (*.ape) у FLAC EZ CD Audio Converter.

Якщо Ви справді бажаєте підтримати українське - після прослуховування, якщо музика вам сподобалась, придбайте ліцензійний диск. Підтримаймо вітчизняних виконавців!


Срібний реліз (на рейтинг впливає 50% завантаженого)
 Трекер:    Зареєстрований   

Завантажити / скачати українську музику



відео для новачків



 Зареєстрований:   2017-04-20 12:57
 Розмір:   312 MB 
 Оцінка музики:   9.9/10 (Голосів: 26)
   
lemale 
Новенький


З нами з: 06.01.10
Востаннє: 16.08.17
Повідомлень: 7

2017-07-31 17:15  
Щиро дякую за роздачу!
Можливо у когось є сингл Журавлі у lossless?

DimAciD 
Новенький


З нами з: 19.12.11
Востаннє: 12.12.17
Повідомлень: 2

2017-11-15 06:54  
почуав у спотифаї, був дуже приємно здивований!
Дуже гарна музика

Ваш часовий пояс: GMT + 2 Години

Нова тема   Відповісти