Бременські розбишаки (2016) 1080p

Нові коментарі

Нова тема   Відповісти
Автор Повідомлення
sergiyko.5 
VIP


З нами з: 25.02.16
Востаннє: 23.08.17
Повідомлень: 1007

2017-04-20 13:56  
Бременські розбишаки (2016) 1080p

Бременські розбишаки (2016) 1080p

Жанр: анімація, пригоди, сімейний
Країна: Україна, Угорщина, Вірменія, сусідня країна

Кінокомпанія:
Централ Партнершип, Star Media
Режисер: Олексій Лук'янчіков, Святослав Ушаков
Актори: Надя Дорофєєва, Дмитро Тодорюк, Діна Гаріпова, Максим Матвеєв, Дмитро Філімонов, Андрій Тартаков, Юлія Яблонська

Сюжет:
Серед висохлих річок і випалених лісів розкинулось Королівство, де не співають птахи, не дояться корови, а люди живуть в страху і злиднях. Але ж так було не завжди: колись тут правив мудрий Король, всюди били фонтани чарівного еліксиру, і ніхто не знав бід. Але ось уже 18 років як Король безслідно зник, а влада і джерело чарівного еліксиру прибрали до рук хитрі і жадібні Міністри.


Тривалість: 01:08:32
Якість:

Відео: кодек: розмір кадру: 1920 х 1080 бітрейт: 5000 кб/с
Аудіо: мова: українська переклад: оригінал кодек: 2.0 бітрейт: 192 кб/с

Дод. інформація: відеоряд російською. Фінальна пісня теж тільки у варіанті мовою сусідньої країни, тому титри вирізані.
Про файл:
General
Unique ID : 221430070612336386230532482938442781983 (0xA695E15F247495748847BF52CBEE951F)
Complete name : D:\Torrents\MULT\Бременські.Розбишаки.2016..1080p.
Format :
Format version : Version 4 / Version 2
File size : 2.63 GiB
Duration : 1h 8mn
Overall bit rate : 5 488 Kbps
Movie name : Бременські.Розбишаки.2016..1080p by sergiyko
Encoded date : UTC 2017-04-20 11:38:15
Writing application : mkvmerge v9.8.0 ('Kuglblids') 64bit
Writing library : libebml v1.3.4 + libmatroska v1.4.5
Attachements : cover.jpeg
DURATION : 01:08:31.776000000
NUMBER_OF_FRAMES : 128493
NUMBER_OF_BYTES : 131576832
_STATISTICS_WRITING_APP : mkvmerge v9.8.0 ('Kuglblids') 64bit
_STATISTICS_WRITING_DATE_UTC : 2017-04-20 11:38:15
_STATISTICS_TAGS : BPS DURATION NUMBER_OF_FRAMES NUMBER_OF_BYTES

Video
ID : 1
Format : AVC
Format/Info : Advanced Video Codec
Format profile : [email protected]
Format settings, CABAC : Yes
Format settings, ReFrames : 4 frames
Codec ID : V_MPEG4/ISO/AVC
Duration : 1h 8mn
Bit rate : 5 123 Kbps
Width : 1 920 pixels
Height : 1 080 pixels
Display aspect ratio : 16:9
Frame rate mode : Constant
Frame rate : 25.000 fps
Color space : YUV
Chroma subsampling : 4:2:0
Bit depth : 8 bits
Scan type : Progressive
Bits/(Pixel*Frame) : 0.099
Stream size : 2.45 GiB (93%)
Title : Бременські Розбишаки 2016 1080p
Language : Ukrainian
Default : Yes
Forced : No
Color range : Limited
Color primaries : BT.709
Transfer characteristics : BT.709
Matrix coefficients : BT.709

Audio
ID : 2
Format : AC-3
Format/Info : Audio Coding 3
Mode extension : CM (complete main)
Format settings, Endianness : Big
Codec ID : A_AC3
Duration : 1h 8mn
Bit rate mode : Constant
Bit rate : 256 Kbps
Channel(s) : 2 channels
Channel positions : Front: L R
Sampling rate : 48.0 KHz
Compression mode : Lossy
Delay relative to video : 8ms
Stream size : 125 MiB (5%)
Language : Ukrainian
Default : Yes
Forced : No

Menu
00:00:00.000 : uk:Розділ 01
00:06:36.680 : uk:Розділ 02
00:13:50.040 : uk:Розділ 03
00:20:10.080 : uk:Розділ 04
00:26:54.600 : uk:Розділ 05
00:34:19.040 : uk:Розділ 06
00:40:33.880 : uk:Розділ 07
00:47:08.600 : uk:Розділ 08
00:53:49.720 : uk:Розділ 09
01:00:07.600 : uk:Розділ 10
01:07:00.360 : uk:Розділ 11
Скріншоти:


Золотий реліз (завантажене не впливає на рейтинг)
 Трекер:    Зареєстрований   

Завантажити / скачати український мультфільм



відео для новачків



 Зареєстрований:   2017-04-20 14:43
 Розмір:   2.63 GB 
 Оцінка мультфільму:   6.4/10 (Голосів: 14)
   
lpershyi 
Попереджень: 2
Попереджень: 2 


З нами з: 04.01.11
Востаннє: 03.08.17
Повідомлень: 2743

2017-04-20 16:21  
sergiyko.5 написано:
відеоряд російською.
В українському прокаті теж підсунули нам відеоряд іноземною мовою та не повний український дубляж з іноземною мовою?
piligrimm97 
VIP


З нами з: 03.07.10
Востаннє: 23.08.17
Повідомлень: 661

2017-04-20 17:08  
На новому каналі показували з українським відеорядом
lpershyi 
Попереджень: 2
Попереджень: 2 


З нами з: 04.01.11
Востаннє: 03.08.17
Повідомлень: 2743

2017-04-20 17:27  
piligrimm97 написано:
На новому
Дякую за інформацію, пошукаємо записи з телебачення.
lpershyi 
Попереджень: 2
Попереджень: 2 


З нами з: 04.01.11
Востаннє: 03.08.17
Повідомлень: 2743

2017-04-23 18:04  
sergiyko.5 -e! Українського відеоряду немає?

11FrYkT-e! Як можна ставити на русифікований відеоряд золото?

11FrYkT 
Модератор відео


З нами з: 20.02.11
Востаннє: 23.08.17
Повідомлень: 3814

2017-04-23 18:27  
lpershyi , викладайте з українським тоді цей піде в архів, а поки досить вести переписку
lpershyi 
Попереджень: 2
Попереджень: 2 


З нами з: 04.01.11
Востаннє: 03.08.17
Повідомлень: 2743

2017-04-23 18:41  
11FrYkT написано:
з українським

11FrYkT-e!
Ви знаєте, де можна знайти 1080p з не русифікованим відеорядом, кращим за запис з ТВ?

Ваш часовий пояс: GMT + 2 Години

Нова тема   Відповісти