На межі / The Edge (1997) 720p 2xUkr/Eng | Sub Ukr/Eng

Нові коментарі

Нова тема   Відповісти
Автор Повідомлення
Anonymous 







2017-04-18 12:13  
На межі / The Edge (1997) 720p 2xUkr/Eng | Sub Ukr/Eng

На межі / The Edge (1997) 720p 2xUkr/Eng | Sub Ukr/Eng
Альтернативний постер

Жанр: бойовик, трилер, драма, пригодницький
Країна: США



Кінокомпанія: 20th Century Fox, Art Linson Productions
Режисер: Лі Тамахорі / Lee Tamahori
Актори: Ентоні Гопкінс / Anthony Hopkins, Алек Болдвін / Alec Baldwin, Ель Макферсон / Elle MacPherson, Гарольд Перріно / Harold Perrineau, ведмідь Барт, Л.К. Джонс / L.Q. Jones та інші

Сюжет:
Мільярдер Чарльз Морс вирушає зі своєю молодою дружиною, супермоделлю Міккі, на Аляску для фотозйомок. Модний професійний фотограф Роберт Грін переконав їх, що саме там є місце, яке ідеально підходить для фотосесії. В пошуках цього місця вони залетіли набагато далі, ніж планували.

Їх маленький літак зазнав аварії... Як вижити в дикій глушині? Щоб врятуватись в лісі, в якому повно диких тварин, вони покладаються один на одного. До порятунку залишається протриматись недовго...

Рейтинг MPAA: R - особам до 17 років обов'язкова присутність батьків або дорослого опікуна
Вікова категорія: 16+
Тривалість: 01:57:33
Якість: 720p
Відео:
кодек:
розмір кадру: 1280 х 544
бітрейт: 4939 кб/с

Аудіо # 1:
мова: українська
переклад: багатоголосий закадровий
ролі озвучили: Ентоні Гопкінс - Михайло Жонін, Алек Болдвін - Олег Лепенець і Лідія Муращенко
кодек: 5.1
бітрейт: 384 кб/с

Аудіо # 2:
мова: українська
переклад: багатоголосий закадровий
ролі озвучили: Ентоні Гопкінс - Михайло Жонін, Алек Болдвін - Олег Лепенець і Олена Яблучна
кодек: 5.1
бітрейт: 384 кб/с

Аудіо # 3:
мова: англійська
переклад: оригінал
кодек: 5.1
бітрейт: 640 кб/с

Субтитри:
мова: українська
тип: програмні (м'які)
формат: *.srt

Субтитри:
мова: англійська
тип: програмні (м'які)
формат: *.srt

Збережено оригінальні розділи, як на Blu-ray
Info
Код:
Complete name               : The Edge (1997) [2xUkr,Eng sub.Ukr,Eng] 720p [Hurtom].
Format                      :
Format version              : Version 4 / Version 2
File size                   : 5.21 GiB
Duration                    : 1 h 57 min
Overall bit rate            : 6 349 kb/s
Movie name                  : На межі / The Edge (1997) [2xUkr,Eng sub.Ukr,Eng] 720p [Hurtom]
Released date               : 1997
Writing library             : libebml v1.3.4 + libmatroska v1.4.5
Cover                       : Yes
Comment                     : http://www.imdb.com/title/tt0119051/
Attachments                 : cover.jpg
ARTIST                      : Ентоні Гопкінс / Anthony Hopkins, Алек Болдвін / Alec Baldwin, Ель Макферсон / Elle MacPherson, Гарольд Перріно / Harold Perrineau, ведмідь Барт, Л.К. Джонс / L.Q. Jones та інші
DIRECTOR                    : Лі Тамахорі / Lee Tamahori
GENRE                       : бойовик, трилер, драма, пригодницький
SYNOPSIS                    : Мільярдер Чарльз Морс вирушає зі своєю молодою дружиною, супермоделлю Міккі, на Аляску для фотозйомок. Модний професійний фотограф Роберт Грін переконав їх, що саме там є місце, яке ідеально підходить для фотосесії. В пошуках цього місця вони залетіли набагато далі, ніж планували. /  / Їх маленький літак зазнав аварії... Як вижити в дикій глушині? Щоб врятуватись в лісі, в якому повно диких тварин, вони покладаються один на одного. До порятунку залишається протриматись недовго...
Url                         : https://toloka.to/t81417

Video
ID                          : 1
Format                      : AVC
Format/Info                 : Advanced Video Codec
Format profile              : [email protected]
Format settings, CABAC      : Yes
Format settings, ReFrames   : 11 frames
Codec ID                    : V_MPEG4/ISO/AVC
Duration                    : 1 h 57 min
Bit rate                    : 4 939 kb/s
Width                       : 1 280 pixels
Height                      : 544 pixels
Display aspect ratio        : 2.35:1
Frame rate mode             : Constant
Frame rate                  : 23.976 FPS
Color space                 : YUV
Chroma subsampling          : 4:2:0
Bit depth                   : 8 bits
Scan type                   : Progressive
Bits/(Pixel*Frame)          : 0.296
Stream size                 : 4.05 GiB (78%)
Title                       : На межі / The Edge (1997) 720p
Writing library             : core 94 r1583 7608d73
Encoding settings           : cabac=1 / ref=11 / deblock=1:-3:-3 / analyse=0x3:0x113 / me=umh / subme=10 / psy=1 / psy_rd=1.00:0.00 / mixed_ref=1 / me_range=32 / chroma_me=1 / trellis=2 / 8x8dct=1 / cqm=0 / deadzone=21,11 / fast_pskip=0 / chroma_qp_offset=-2 / threads=6 / sliced_threads=0 / nr=0 / decimate=0 / interlaced=0 / constrained_intra=0 / bframes=10 / b_pyramid=2 / b_adapt=2 / b_bias=0 / direct=3 / weightb=1 / weightp=2 / keyint=250 / keyint_min=25 / scenecut=40 / intra_refresh=0 / rc_lookahead=80 / rc=2pass / mbtree=1 / bitrate=4939 / ratetol=1.0 / qcomp=0.70 / qpmin=10 / qpmax=51 / qpstep=4 / cplxblur=20.0 / qblur=0.5 / ip_ratio=1.40 / aq=1:0.50
Language                    : English
Default                     : Yes
Forced                      : No

Audio #1
ID                          : 2
Format                      : AC-3
Format/Info                 : Audio Coding 3
Format settings, Endianness : Big
Codec ID                    : A_AC3
Duration                    : 1 h 57 min
Bit rate mode               : Constant
Bit rate                    : 384 kb/s
Channel(s)                  : 6 channels
Channel positions           : Front: L C R, Side: L R, LFE
Sampling rate               : 48.0 kHz
Frame rate                  : 31.250 FPS (1536 spf)
Bit depth                   : 16 bits
Compression mode            : Lossy
Stream size                 : 323 MiB (6%)
Title                       : MVO [Novyj] 5.1 384 Kbps [Hurtom-_oles]
Language                    : Ukrainian
Service kind                : Complete Main
Default                     : Yes
Forced                      : Yes

Audio #2
ID                          : 3
Format                      : AC-3
Format/Info                 : Audio Coding 3
Format settings, Endianness : Big
Codec ID                    : A_AC3
Duration                    : 1 h 57 min
Bit rate mode               : Constant
Bit rate                    : 384 kb/s
Channel(s)                  : 6 channels
Channel positions           : Front: L C R, Side: L R, LFE
Sampling rate               : 48.0 kHz
Frame rate                  : 31.250 FPS (1536 spf)
Bit depth                   : 16 bits
Compression mode            : Lossy
Stream size                 : 323 MiB (6%)
Title                       : MVO [2+2/1+1] 5.1 384 Kbps [Hurtom-_oles]
Language                    : Ukrainian
Service kind                : Complete Main
Default                     : No
Forced                      : No

Audio #3
ID                          : 4
Format                      : AC-3
Format/Info                 : Audio Coding 3
Format settings, Endianness : Big
Codec ID                    : A_AC3
Duration                    : 1 h 57 min
Bit rate mode               : Constant
Bit rate                    : 640 kb/s
Channel(s)                  : 6 channels
Channel positions           : Front: L C R, Side: L R, LFE
Sampling rate               : 48.0 kHz
Frame rate                  : 31.250 FPS (1536 spf)
Bit depth                   : 16 bits
Compression mode            : Lossy
Stream size                 : 538 MiB (10%)
Title                       : Original, 5.1 640 Kbps
Language                    : English
Service kind                : Complete Main
Default                     : No
Forced                      : No

Text #1
ID                          : 5
Format                      : UTF-8
Codec ID                    : S_TEXT/UTF8
Codec ID/Info               : UTF-8 Plain Text
Duration                    : 1 h 52 min
Bit rate                    : 63 b/s
Count of elements           : 905
Stream size                 : 52.0 KiB (0%)
Title                       : Ukr full [Hurtom]
Language                    : Ukrainian
Default                     : No
Forced                      : No

Text #2
ID                          : 6
Format                      : UTF-8
Codec ID                    : S_TEXT/UTF8
Codec ID/Info               : UTF-8 Plain Text
Duration                    : 1 h 52 min
Bit rate                    : 47 b/s
Count of elements           : 1239
Stream size                 : 39.3 KiB (0%)
Title                       : Eng SDH
Language                    : English
Default                     : No
Forced                      : No

Menu
00:00:00.000                : en:Main Titles
00:06:15.917                : en:Knowledge Is Power
00:09:45.043                : en:Late Night Snack
00:16:52.470                : en:Developing a Vision
00:20:43.242                : en:Embarking on an Adventure
00:25:30.738                : en:Interrupted Flight
00:30:27.659                : en:In for a Walk
00:35:01.975                : en:A New Direction
00:39:26.281                : en:Barely Missing
00:44:41.971                : en:Pressing On
00:48:23.400                : en:Square One
00:51:57.990                : en:From Out of Nowhere
00:58:18.870                : en:Glimmer of Hope
01:05:39.144                : en:Face to Face
01:09:27.413                : en:Safety Circle
01:12:06.155                : en:The Hunter Hunted
01:21:55.911                : en:A New Outlook
01:26:54.501                : en:Vacant Shelter
01:29:58.935                : en:Disturbing Discovery
01:35:23.593                : en:Backfire
01:41:54.066                : en:True Confessions
01:46:36.307                : en:The Final Journey
01:52:55.811                : en:End Credits


Джерело: &
Подяки _oles, dvorsky, Technomate, ua2004 за українські доріжки, bober-mober та mrdavis за українізацію постерів, Віктор'у за допомогу.


Срібний реліз (на рейтинг впливає 50% завантаженого)
 Трекер:    Зареєстрований   

Завантажити / скачати фільм українською



відео для новачків



 Зареєстрований:   2017-04-18 13:02
 Розмір:   5.21 GB 
 Оцінка фільму:   5.7/10 (Голосів: 23)
   
Інші релізи
   На межі / The Edge (1997) [MP4, 640x] apvAltisimo  2 / 0   700 MB   2016-03-12 14:23 
   На межі / The Edge (1997) 2xUkr/Eng | Sub Ukr/Eng _oles  3 / 3   2.5 GB   2012-08-17 13:18 
pandavik 
Новенький


З нами з: 03.02.12
Востаннє: 15.09.17
Повідомлень: 2

2017-05-01 09:13  
lдякую!
Ваш часовий пояс: GMT + 2 Години

Нова тема   Відповісти