Джейк і пірати з Небувалії / Jake and the Never Land Pirates (Сезон 2,3) (2012) AVC

Нові коментарі

Нова тема   Відповісти
Автор Повідомлення
sergiyko.5 
VIP


З нами з: 25.02.16
Востаннє: 22.10.17
Повідомлень: 1137

2017-04-17 19:55  
Джейк і пірати з Небувалії / Jake and the Never Land Pirates (Сезон 2-3, серії 72 з 73) (2012) AVC


Джейк і пірати з Небувалії / Jake and the Never Land Pirates (Сезон 2,3) (2012) AVC

Жанр: мультсеріал, пригоди, комедія
Країна: США
Кінокомпанія: Disney
Режисер: Келлі Уорд, Хауі Паркінс, Мікі Коркоран

Сюжет:
Разом з Джейком, Іззі, Каббі та папугою Скаллі на борту надійного корабля "Швидкий" тебе чекають пригоди в болотних трясовинах і чарівних джунглях. Допомагай піратам і шукай втрачені скарби, але остерігайся Капітана Гака! Разом зі своїм вірним помічником, Гак створює перешкоди на шляху Джейка. Щоб провчити його, знадобиться згуртована команда, кмітливий розум і навіть чарівний пилок фей!




Тривалість: 1 серія: 23:05 (цілком серій: 72)

Якість:

Відео: кодек: розмір кадру: 704x392 бітрейт: 700 кб/с
Аудіо: мова: українська переклад: професійний дубльований кодек: MP2 2.0 бітрейт: 192 кб/с

Джерело озвучення:
Перелік серій:

Сезон 2
01.Bucky's Anchor Aweigh-The Never Rainbow
02.Peter's Musical Pipes-The Never Night Star
03.Race Around Rock-Captain Hook is Missing
04.Captain Hook's Hooks-Mr. Smee's Pet
05 Пустельні пірати - Велика піратська піраміда
07 Лагуна капітана Гака - Підводний Баккі
08 Перо в капелюсі капітана - Китова історія
09 Русалчина пісня - Скарб відпливу
11 Гак і малесенька киця - Пірати на природі
12 Коштовний тризубець Іззі - Піратський міні-гольф
13.2.Jake Saves Bucky
14.Tricks, Treats and Treasure-Season of the Sea Witch
15.Cookin' with Hook-Captain Flynn's New Matey
16.Jake and the Beanstalk-Little Red Riding Hook
17.Izzy's Trident Treasure-Pirate Putt Putt
18.Sail Away Treasure-The Mystery of Mysterious Island
19.A Bad Case of Barnacles-Cubby's Pet Problem
21.Cubby's Mixed-Up Map-Jake's Cool New Matey
22.Jake's Birthday Bash-The Lighthouse Diamond
23.Tiki Tree Luau-Captain Who
24.Ahoy, Captain Smee-Cap'n Croak
25.The Mystery Pirate-Pirate Swap
26.Jake and Sneaky Le Beak-Cubby the Brave
27.Pirate Genie-in-a-Bottle
28.Hook's Playful Plant-The Golden Smee
29.Follow the Bouncing Bumble-Sandy and the Clams
30.Sand Pirate Cubby-Song of the Desert
31.Jake's Special Delivery-Seahorse Saddle Up
32.Pirate Pals-Treasurefalls
33.1.Jake's Never Land Rescue.Part 1
33.2.Jake's Never Land Rescue.Part 2
34.Misty's Magical Mix Up-Bones's Lucky Doubloon
35
36 F-F-Frozen Never Land! / Little Stinkers

Сезон 3
01 Treasure of the Pirate Mummy's Tomb / Mystery of the Missing Treasure!
02.Invisible Jake-Who's a Pretty Bird
03.Captain Gizmo-Jake's Pirate Swap Meet
04.Pirate Genie Tales
05.Cubby's Crabby Crusade-The Never Sands of Time
06.Trouble on the High Sneeze-Pirate Sitting Pirates
07.Smee-erella
08.The Never Land Coconut Cook Off-The Lost and Found Treasure
09.Hideout…It's Hook-Tick Tock Trap
10.Play it Again Cubby-Trading Treasures
11.The Singing Stones-The Mermaid Queen's Voice
12.Where's Mama Hook-Captain Hook's New Hobby
13.Bucky's Treasure Hunt-Cubby's Tall Tale
14.Hook's Treasure Nap-Princess Power
15.Nanny Nell-Izzy and the Sea-Unicorn
16.Hook the Genie-A Royal Misunderstanding
17.Pirate Pogo-The Sneaky Snook-Off
18.Sleeping Mermaid-Jake's Mega-Mecha Sword
19.Pirate Ghost Story-Queen Izzy-bella
20.Jake the Wolf-Witch Hook
21_1.Battle for the Book.Part 1
21_2.Battle for the Book.Part 2
22.Mer Matey Ahoy-Pirate Pinball
23.ShiverJack-Treasure Tunnel Trouble
24.Grandpa Bones-The Arctic Pearl
25.Captain Scrooge
26.Jake's Awesome Surprise-Aye, Aye Cap'n Cap'n
27.Captain Frost-The Legendary Snow Foot
28.Look Out...Never Sharks-The Monkey Pirate King
29.Stowaway Ghosts-Happy 1,000th Birthday
30.Flight of the Feathers-Captain Hookity Hook
31.Dread the Evil Genie-Sandblast
32.Tiki Maskerade Mystery-The Tale of Ratsputin
33.Captain Buzzard to the Rescue-Croctastrophy
34.1.The Great Never Sea Conquest.Part 1
34.2.The Great Never Sea Conquest.Part 2
Про файл:

General
Unique ID : 187292492991223391266250251934994084438 (0x8CE738D8FE97CEAD94C687C264F53256)
Complete name : E:\MULTFILMS\Jake and the Never Land Pirates \Jake and the Never Land Pirates S02 \S02E02.Peter's Musical Pipes-The Never Night Star.
Format :
Format version : Version 2
File size : 149 MiB
Duration : 23mn 5s
Overall bit rate : 903 Kbps
Encoded date : UTC 2017-04-16 13:29:08
Writing application : mkvmerge v7.8.0 ('River Man') 32bit built on Apr 3 2015 12:11:22
Writing library : libebml v1.3.1 + libmatroska v1.4.2

Video
ID : 1
Format : AVC
Format/Info : Advanced Video Codec
Format profile : [email protected]
Format settings, CABAC : Yes
Format settings, ReFrames : 12 frames
Codec ID : V_MPEG4/ISO/AVC
Duration : 23mn 5s
Bit rate : 693 Kbps
Width : 704 pixels
Height : 392 pixels
Display aspect ratio : 16:9
Frame rate mode : Constant
Frame rate : 25.000 fps
Color space : YUV
Chroma subsampling : 4:2:0
Bit depth : 8 bits
Scan type : Progressive
Bits/(Pixel*Frame) : 0.100
Stream size : 114 MiB (77%)
Writing library : core 146 r2538 121396c
Encoding settings : cabac=1 / ref=12 / deblock=1:0:0 / analyse=0x3:0x133 / me=umh / subme=9 / psy=1 / psy_rd=0.40:0.00 / mixed_ref=1 / me_range=16 / chroma_me=1 / trellis=2 / 8x8dct=1 / cqm=0 / deadzone=21,11 / fast_pskip=1 / chroma_qp_offset=-2 / threads=6 / lookahead_threads=1 / sliced_threads=0 / nr=0 / decimate=1 / interlaced=0 / bluray_compat=0 / constrained_intra=0 / bframes=5 / b_pyramid=2 / b_adapt=2 / b_bias=0 / direct=3 / weightb=1 / open_gop=0 / weightp=2 / keyint=250 / keyint_min=25 / scenecut=40 / intra_refresh=0 / rc_lookahead=60 / rc=crf / mbtree=1 / crf=20.0 / qcomp=0.60 / qpmin=0 / qpmax=69 / qpstep=4 / ip_ratio=1.40 / aq=1:0.60
Default : Yes
Forced : No

Audio
ID : 2
Format : MPEG Audio
Format version : Version 1
Format profile : Layer 2
Codec ID : A_MPEG/L2
Codec ID/Hint : MP2
Duration : 23mn 5s
Bit rate mode : Constant
Bit rate : 192 Kbps
Channel(s) : 2 channels
Sampling rate : 48.0 KHz
Compression mode : Lossy
Stream size : 31.7 MiB (21%)
Default : Yes
Forced : No : Ні
Скріншоти:


Автор запису/ріпу: sergiyko


Бронзовий реліз (на рейтинг впливає 75% завантаженого)
 Трекер:    Зареєстрований   

Завантажити / скачати мультфільм українською



відео для новачків



 Зареєстрований:   2017-08-18 12:20
 Розмір:   12.78 GB 
 Оцінка мультсеріалу:   10/10 (Голосів: 9)
   
jelaza_kazone 
Новенький


З нами з: 30.04.14
Востаннє: 08.10.17
Повідомлень: 1

2017-04-20 01:12  
Дякую! Дуже-дуже чекали!
sergiyko.5 
VIP


З нами з: 25.02.16
Востаннє: 22.10.17
Повідомлень: 1137

2017-08-18 12:30  
Додав нові серії. Залишилась відсутня одна, можливо не транслювалась нашим каналом.
Maryena 
Поважний учасник


З нами з: 08.05.08
Востаннє: 22.10.17
Повідомлень: 222

2017-08-24 09:32  
А серіалу Шиммер і Шайн у вас нема? Чи Ever After Hight? Їх транслювали по плюс-плюс, але в мережі, на жаль, нема ((
sergiyko.5 
VIP


З нами з: 25.02.16
Востаннє: 22.10.17
Повідомлень: 1137

2017-08-24 12:16  
Maryena написано:
А серіалу Шиммер і Шайн у вас нема?

Були записи, пропали разом з жорстким диском.

SpinyIce 
Новенький


З нами з: 04.12.10
Востаннє: 17.10.17
Повідомлень: 3

2017-08-24 19:34  
а перший сезон? чи його не показували?
Ваш часовий пояс: GMT + 2 Години

Нова тема   Відповісти