Іграшка (The Toy) / Le jouet (1976) AVC Ukr/Fre | Sub Eng/Fre

Нові коментарі

Нова тема   Відповісти
Автор Повідомлення
Anonymous 







2017-04-17 19:53  
Іграшка / The Toy / Le jouet (1976) AVC Ukr/Fre | Sub Eng/Fre

Іграшка (The Toy) / Le jouet (1976) AVC Ukr/Fre | Sub Eng/Fre


Жанр: комедія
Країна: Франція



Кінокомпанія: Andrea Films, EFVE, Fideline Films, Renn Productions
Режисер: Франсіс Вебер / Francis Veber
Актори: П'єр Рішар / Pierre Richard, Мішель Буке / Michel Bouquet, Фабріс Греко / Fabrice Greco, Жак Франсуа / Jacques François, Даніель Секкальді / Daniel Ceccaldi, Шарль Жерар / Charles Gérard, Мішель Омон / Michel Aumont, Сюзі Дайсон / Suzy Dyson, Мішель Робен / Michel Robin, Жерар Жюньо / Gérard Jugnot, Мішель Сенд / Michèle Sand та інші

Сюжет:
Ерік - дитина дуже заможного батька, який розлучився з його матір'ю і живе з іншою жінкою, яку більше за все цікавлять його статки. Син для привернення уваги батька вимагає купити йому як подарунок дорослу людину - журналіста Франсуа Перрена.


Вікова категорія: 12+

Тривалість: 01:33:53
Якість: AVC
Відео:
кодек:
розмір кадру: 960 х 576
бітрейт: 3100 Кбіт/с

Аудіо # 1:
мова: українська
переклад: багатоголосий закадровий
кодек: 2.0
бітрейт: 192 кб/с

Аудіо # 2:
мова: французька
переклад: оригінал
кодек: 2.0
бітрейт: 224 кб/с

Субтитри # 1:
мова: англійська
тип: програмні (м'які)
формат: *.srt

Субтитри # 2:
мова: французька
тип: програмні (м'які)
формат: *.srt

Збережено оригінальні розділи, як на Blu-ray
Info
Код:
Complete name               : Le jouet (The Toy) (1976) [Ukr,Fre sub.Eng,Fre] AVC [Hurtom].
Format                      :
Format version              : Version 4 / Version 2
File size                   : 2.31 GiB
Duration                    : 1 h 33 min
Overall bit rate            : 3 519 kb/s
Movie name                  : Іграшка / The Toy / Le jouet (1976) [Ukr,Fre sub.Eng,Fre] AVC [Hurtom]
Released date               : 1976
Writing library             : libebml v1.3.4 + libmatroska v1.4.5
Cover                       : Yes
Comment                     : http://www.imdb.com/title/tt0074720/
Attachments                 : cover.jpg
ARTIST                      : П'єр Рішар / Pierre Richard, Мішель Буке / Michel Bouquet, Фабріс Греко / Fabrice Greco, Жак Франсуа / Jacques François, Даніель Секкальді / Daniel Ceccaldi, Шарль Жерар / Charles Gérard, Мішель Омон / Michel Aumont, Сюзі Дайсон / Suzy Dyson, Мішель Робен / Michel Robin, Жерар Жюньо / Gérard Jugnot, Мішель Сенд / Michèle Sand та інші
DIRECTOR                    : Франсіс Вебер / Francis Veber
GENRE                       : комедія
SYNOPSIS                    : Ерік - дитина дуже заможного батька, який розлучився з його матір'ю і живе з іншою жінкою, яку більше за все цікавлять його статки. Син для привернення уваги батька вимагає купити йому як подарунок дорослу людину - журналіста Франсуа Перрена.
Url                         : https://toloka.to/t81409

Video
ID                          : 1
Format                      : AVC
Format/Info                 : Advanced Video Codec
Format profile              : [email protected]
Format settings, CABAC      : Yes
Format settings, ReFrames   : 9 frames
Codec ID                    : V_MPEG4/ISO/AVC
Duration                    : 1 h 33 min
Bit rate                    : 3 100 kb/s
Width                       : 960 pixels
Height                      : 576 pixels
Display aspect ratio        : 5:3
Frame rate mode             : Constant
Frame rate                  : 23.976 FPS
Color space                 : YUV
Chroma subsampling          : 4:2:0
Bit depth                   : 8 bits
Scan type                   : Progressive
Bits/(Pixel*Frame)          : 0.234
Stream size                 : 2.03 GiB (88%)
Title                       : Іграшка / The Toy / Le jouet (1976) 720p [MediaClub-Painter]
Writing library             : core 130 r2273 b3065e6
Encoding settings           : cabac=1 / ref=9 / deblock=1:-3:-2 / analyse=0x3:0x133 / me=umh / subme=11 / psy=1 / psy_rd=1.00:0.20 / mixed_ref=1 / me_range=48 / chroma_me=1 / trellis=2 / 8x8dct=1 / cqm=0 / deadzone=21,11 / fast_pskip=0 / chroma_qp_offset=-3 / threads=6 / lookahead_threads=1 / sliced_threads=0 / nr=0 / decimate=0 / interlaced=0 / bluray_compat=0 / constrained_intra=0 / bframes=8 / b_pyramid=2 / b_adapt=2 / b_bias=0 / direct=3 / weightb=1 / open_gop=0 / weightp=2 / keyint=240 / keyint_min=23 / scenecut=40 / intra_refresh=0 / rc=2pass / mbtree=0 / bitrate=3100 / ratetol=1.0 / qcomp=0.60 / qpmin=0 / qpmax=69 / qpstep=4 / cplxblur=20.0 / qblur=0.5 / ip_ratio=1.40 / pb_ratio=1.30 / aq=1:1.00
Language                    : French
Default                     : Yes
Forced                      : No

Audio #1
ID                          : 2
Format                      : AC-3
Format/Info                 : Audio Coding 3
Format settings, Endianness : Big
Codec ID                    : A_AC3
Duration                    : 1 h 33 min
Bit rate mode               : Constant
Bit rate                    : 192 kb/s
Channel(s)                  : 2 channels
Channel positions           : Front: L R
Sampling rate               : 48.0 kHz
Frame rate                  : 31.250 FPS (1536 spf)
Bit depth                   : 16 bits
Compression mode            : Lossy
Stream size                 : 129 MiB (5%)
Title                       : MVO [1+1] 2.0 192 Kbps [Hurtom-NemoInFire,Hulk1987]
Language                    : Ukrainian
Service kind                : Complete Main
Default                     : Yes
Forced                      : Yes

Audio #2
ID                          : 3
Format                      : AC-3
Format/Info                 : Audio Coding 3
Format settings, Endianness : Big
Codec ID                    : A_AC3
Duration                    : 1 h 33 min
Bit rate mode               : Constant
Bit rate                    : 224 kb/s
Channel(s)                  : 2 channels
Channel positions           : Front: L R
Sampling rate               : 48.0 kHz
Frame rate                  : 31.250 FPS (1536 spf)
Bit depth                   : 16 bits
Compression mode            : Lossy
Stream size                 : 150 MiB (6%)
Title                       : Original, 2.0 224 Kbps
Language                    : French
Service kind                : Complete Main
Default                     : No
Forced                      : No

Text #1
ID                          : 4
Format                      : UTF-8
Codec ID                    : S_TEXT/UTF8
Codec ID/Info               : UTF-8 Plain Text
Duration                    : 1 h 30 min
Bit rate                    : 38 b/s
Count of elements           : 947
Stream size                 : 25.6 KiB (0%)
Title                       : Eng full
Language                    : English
Default                     : No
Forced                      : No

Text #2
ID                          : 5
Format                      : UTF-8
Codec ID                    : S_TEXT/UTF8
Codec ID/Info               : UTF-8 Plain Text
Duration                    : 1 h 30 min
Bit rate                    : 47 b/s
Count of elements           : 1086
Stream size                 : 31.7 KiB (0%)
Title                       : Fre full
Language                    : French
Default                     : No
Forced                      : No

Menu
00:00:00.000                : en:Chapter 01
00:05:01.926                : en:Chapter 02
00:10:25.791                : en:Chapter 03
00:15:03.861                : en:Chapter 04
00:23:10.806                : en:Chapter 05
00:30:06.179                : en:Chapter 06
00:35:06.729                : en:Chapter 07
00:43:40.826                : en:Chapter 08
00:48:41.585                : en:Chapter 09
00:54:45.323                : en:Chapter 10
00:59:22.308                : en:Chapter 11
01:08:46.330                : en:Chapter 12
01:15:54.091                : en:Chapter 13
01:21:45.358                : en:Chapter 14
01:26:32.520                : en:Chapter 15
01:32:03.643                : en:Chapter 16
01:33:53.753                : en:Chapter 17


Джерело: &
Подяка NemoInFire та Hulk1987 за українську доріжку, а Gelios'у - за постер.

ЗАЛИШАЙТЕСЬ ЯКОМОГА ДОВШЕ НА РОЗДАЧІ
ЗАВАНТАЖИВ САМ - ДАЙ ЗАВАНТАЖИТИ ІНШИМ!


Срібний реліз (на рейтинг впливає 50% завантаженого)
 Трекер:    Зареєстрований   

Завантажити / скачати фільм українською



відео для новачків



 Зареєстрований:   2017-04-17 20:09
 Розмір:   2.31 GB 
 Оцінка фільму:   5.5/10 (Голосів: 20)
   
Інші релізи
   Іграшка (The Toy) / Le jouet (1976) 720p Ukr/Fre | Sub Eng/Fre igor911  2 / 0   7.77 GB   2017-04-17 13:40 
   Іграшка / Le jouet (1976) NemoInFire  5 / 0   1.32 GB   2017-04-17 07:44 
leicheman 
Відео Гуртом - підтримка та поширення
Відео Гуртом - підтримка та поширення


З нами з: 03.07.14
Востаннє: 22.09.17
Повідомлень: 1189

2017-04-18 14:48  
не знаю, чи це ви його ріпали. але чорні смуги по бокам муляють очі((
Electroz 
Відео Гуртом - підтримка та поширення
Відео Гуртом - підтримка та поширення


З нами з: 18.09.14
Востаннє: 22.09.17
Повідомлень: 1581

2017-04-18 15:12  
leicheman
На скрінах немає чорних смуг. Перевірте налаштування плеєра.

leicheman 
Відео Гуртом - підтримка та поширення
Відео Гуртом - підтримка та поширення


З нами з: 03.07.14
Востаннє: 22.09.17
Повідомлень: 1189

2017-04-18 17:42  
Electroz


отак у всіх 4х моїх плеєрах, можливо це через дивне розширення.
бокові трохи муляють, бо не звично, як нижні і верхні часто бувають.

Anonymous 







2017-04-18 18:44  
leicheman написано:
але чорні смуги по бокам муляють очі

немає тут ніяких чорних смуг, ріп має оригінальний аспект 1,66:1

leicheman 
Відео Гуртом - підтримка та поширення
Відео Гуртом - підтримка та поширення


З нами з: 03.07.14
Востаннє: 22.09.17
Повідомлень: 1189

2017-04-18 19:48  
Anonymous
ну не знаю, влс, мпс, віндоус плеєри 2 тоді брешуть?

Anonymous 







2017-04-18 21:31  
Повторю вдруге і ввостаннє: У ЦЬОМУ РЕЛІЗІ, ЯК І В ІНШИХ ДВОХ РЕЛІЗАХ ЦЬОГО ФІЛЬМУ НА ТОЛОЦІ ЧОРНИХ СМУГ НЕМАЄ

*програвач MPC-HC "з коробки" K-Lite Codec Pack Mega без жодних додаткових налаштувань.

з питань налаштувань своїх програвачів звертайся у відповідному розділі https://toloka.to/f50

leicheman 
Відео Гуртом - підтримка та поширення
Відео Гуртом - підтримка та поширення


З нами з: 03.07.14
Востаннє: 22.09.17
Повідомлень: 1189

2017-04-18 21:49  
Цитата:
програвач MPC-HC "з коробки" K-Lite Codec Pack Mega без жодних додаткових налаштувань.


так само і в мене . але на повний екран чорні смуги по бокам! в усіх плеєрах , вони усі зі стандартними налаштуваннями.
я ж не брешу.

Anonymous 







2017-04-18 21:56  
leicheman, в мене немає слів, одні букви..."то не наші єноти"(С)...то смуги ТВОЇ
Лікбез "полособорця"

Patriot_ukr 
VIP


З нами з: 06.04.15
Востаннє: 22.09.17
Повідомлень: 1784

2017-04-18 22:01  
leicheman, фільм не 16:9. От і утворюються смуги на місцевості, куди немає відоряду.

Додано через 3 хвилини 19 секунд:

Даний фільм = близько 1.67 (1.6666666...) (960/576)
Розширення вашого екрану = близько 1.78 (1.7777777...) (16/9)
1.78-1.67=0.11, саме ці бокові часточки = смуги на вашім екрані

leicheman 
Відео Гуртом - підтримка та поширення
Відео Гуртом - підтримка та поширення


З нами з: 03.07.14
Востаннє: 22.09.17
Повідомлень: 1189

2017-04-18 22:35  
Anonymous
та тихенько ви, спокій тільки спокій =)

Patriot_ukr
дякую, тепер для мене нуба зрозуміло.

Ваш часовий пояс: GMT + 2 Години

Нова тема   Відповісти