Шульга / Southpaw (2015) AVC Ukr/Eng | Sub Eng

Нові коментарі

Нова тема   Відповісти
Автор Повідомлення
Anonymous 







2017-04-17 16:51  
Шульга / Southpaw (2015) AVC Ukr/Eng | Sub Eng



Жанр: драма, спорт
Країна: США, Гонконг



Кінокомпанія: Weinstein Company, Escape Artists
Режисер: Антуан Фукуа / Antoine Fuqua
Актори: Джейк Джилленгол / Jake Gyllenhaal, Рейчел МакАдамс / Rachel McAdams, Наомі Гарріс / Naomie Harris, Форест Вайтакер / Forest Whitaker, Уна Лоуренс / Oona Laurence, Кертіс Джексон / Curtis '50 Cent' Jackson, Бо Напп / Beau Knapp, Віктор Ортіс / Victor Ortiz, Мігель Гомес / Miguel Gomez та інші

Сюжет:
Історія боксера з важкою долею, що намагається повернути собі колишню славу заради маленької дочки.
Неофіційні українські трейлери:





*любительське озвучення трейлерів відрізняється від наявного у релізі

Рейтинг MPAA: R - особам до 17 років обов'язкова присутність батьків або дорослого опікуна
Вікова категорія: 16+
Тривалість: 02:03:49
Якість: AVC
Відео:
кодек:
розмір кадру: 1024 x 436
бітрейт: 2425 кб/с

Аудіо # 1:
мова: українська
переклад: багатоголосий закадровий
кодек: 2.0
бітрейт: 192 кб/с

Аудіо # 2:
мова: англійська
переклад: оригінал
кодек: 5.1
бітрейт: 448 кб/с

Субтитри:
мова: англійська
тип: програмні (м'які)
формат: *.srt

Збережені оригінальні розділи як на Blu-ray
Info та log
Код:
Complete name               : Southpaw (2015) [Ukr,Eng sub.Eng] AVC [Hurtom].
Format                      :
Format version              : Version 4 / Version 2
File size                   : 2.65 GiB
Duration                    : 2 h 3 min
Overall bit rate            : 3 067 kb/s
Movie name                  : Шульга / Southpaw (2015) [Ukr,Eng sub.Eng] AVC [Hurtom]
Released date               : 2015
Writing library             : libebml v1.3.4 + libmatroska v1.4.5
Cover                       : Yes
Comment                     : http://www.imdb.com/title/tt1798684/
Attachments                 : cover.jpg
ARTIST                      : Джейк Джилленгол / Jake Gyllenhaal, Рейчел МакАдамс / Rachel McAdams, Наомі Гарріс / Naomie Harris, Форест Вайтакер / Forest Whitaker, Уна Лоуренс / Oona Laurence, Кертіс Джексон / Curtis '50 Cent' Jackson, Бо Напп / Beau Knapp, Віктор Ортіс / Victor Ortiz, Мігель Гомес / Miguel Gomez та інші
DIRECTOR                    : Антуан Фукуа / Antoine Fuqua
GENRE                       : драма, спорт
SYNOPSIS                    : Історія боксера з важкою долею, що намагається повернути собі колишню славу заради маленької дочки.
Url                         : https://toloka.to/t81403

Video
ID                          : 1
Format                      : AVC
Format/Info                 : Advanced Video Codec
Format profile              : [email protected]
Format settings, CABAC      : Yes
Format settings, ReFrames   : 12 frames
Codec ID                    : V_MPEG4/ISO/AVC
Duration                    : 2 h 3 min
Bit rate                    : 2 425 kb/s
Width                       : 1 024 pixels
Height                      : 426 pixels
Display aspect ratio        : 2.40:1
Frame rate mode             : Constant
Frame rate                  : 23.976 (24000/1001) FPS
Color space                 : YUV
Chroma subsampling          : 4:2:0
Bit depth                   : 8 bits
Scan type                   : Progressive
Bits/(Pixel*Frame)          : 0.232
Stream size                 : 2.10 GiB (79%)
Title                       : Шульга / Southpaw (2015) AVC [ExKinoRay-ollan]
Writing library             : core 125 r2200 999b753
Encoding settings           : cabac=1 / ref=12 / deblock=1:-3:-3 / analyse=0x3:0x133 / me=umh / subme=11 / psy=1 / psy_rd=1.00:0.10 / mixed_ref=1 / me_range=32 / chroma_me=1 / trellis=2 / 8x8dct=1 / cqm=0 / deadzone=21,11 / fast_pskip=0 / chroma_qp_offset=-3 / threads=12 / lookahead_threads=2 / sliced_threads=0 / nr=0 / decimate=0 / interlaced=0 / bluray_compat=0 / constrained_intra=0 / bframes=9 / b_pyramid=2 / b_adapt=2 / b_bias=0 / direct=3 / weightb=1 / open_gop=0 / weightp=2 / keyint=240 / keyint_min=23 / scenecut=40 / intra_refresh=0 / rc=2pass / mbtree=0 / bitrate=2425 / ratetol=1.0 / qcomp=0.60 / qpmin=0 / qpmax=69 / qpstep=4 / cplxblur=20.0 / qblur=0.5 / ip_ratio=1.40 / pb_ratio=1.30 / aq=1:1.00
Language                    : English
Default                     : Yes
Forced                      : No

Audio #1
ID                          : 2
Format                      : AC-3
Format/Info                 : Audio Coding 3
Format settings, Endianness : Big
Codec ID                    : A_AC3
Duration                    : 2 h 3 min
Bit rate mode               : Constant
Bit rate                    : 192 kb/s
Channel(s)                  : 2 channels
Channel positions           : Front: L R
Sampling rate               : 48.0 kHz
Frame rate                  : 31.250 FPS (1536 spf)
Bit depth                   : 16 bits
Compression mode            : Lossy
Stream size                 : 170 MiB (6%)
Title                       : MVO [Volya Cine+] 2.0 192 Kbps [Hurtom-Gelios,Sando7,slavik_v_z]
Language                    : Ukrainian
Service kind                : Complete Main
Default                     : Yes
Forced                      : Yes

Audio #2
ID                          : 3
Format                      : AC-3
Format/Info                 : Audio Coding 3
Format settings, Endianness : Big
Codec ID                    : A_AC3
Duration                    : 2 h 3 min
Bit rate mode               : Constant
Bit rate                    : 448 kb/s
Channel(s)                  : 6 channels
Channel positions           : Front: L C R, Side: L R, LFE
Sampling rate               : 48.0 kHz
Frame rate                  : 31.250 FPS (1536 spf)
Bit depth                   : 16 bits
Compression mode            : Lossy
Stream size                 : 397 MiB (15%)
Title                       : Original, 5.1 448 Kbps
Language                    : English
Service kind                : Complete Main
Default                     : No
Forced                      : No

Text
ID                          : 4
Format                      : UTF-8
Codec ID                    : S_TEXT/UTF8
Codec ID/Info               : UTF-8 Plain Text
Duration                    : 1 h 57 min
Bit rate                    : 78 b/s
Count of elements           : 2150
Stream size                 : 68.0 KiB (0%)
Title                       : Full
Language                    : English
Default                     : No
Forced                      : No

Menu
00:00:00.000                : en:Chapter 01
00:08:49.694                : en:Chapter 02
00:12:58.568                : en:Chapter 03
00:20:00.656                : en:Chapter 04
00:23:40.085                : en:Chapter 05
00:29:34.145                : en:Chapter 06
00:34:59.554                : en:Chapter 07
00:39:44.296                : en:Chapter 08
00:45:46.283                : en:Chapter 09
00:52:38.654                : en:Chapter 10
00:59:28.814                : en:Chapter 11
01:07:08.733                : en:Chapter 12
01:12:49.823                : en:Chapter 13
01:18:14.479                : en:Chapter 14
01:23:40.055                : en:Chapter 15
01:29:40.415                : en:Chapter 16
01:37:00.146                : en:Chapter 17
01:45:19.895                : en:Chapter 18
01:55:01.060                : en:Chapter 19
01:59:38.503                : en:Chapter 20
02:03:48.253                : en:Chapter 21


Код:
[info]: frame I:1535 Avg QP:15.69 size: 65193
[info]: frame P:44093 Avg QP:17.39 size: 23454
[info]: frame B:132472 Avg QP:19.05 size: 7927
[info]: consecutive B-frames: 3.3% 4.3% 10.7% 32.6% 15.6% 27.1% 3.1% 1.8% 0.6% 0.4% 0.5%
[info]: mb I I16..4: 15.1% 60.7% 24.2%
[info]: mb P I16..4: 2.5% 17.2% 3.0% P16..4: 27.6% 31.9% 9.8% 3.2% 0.3% skip: 4.6%
[info]: mb B I16..4: 0.5% 1.9% 0.4% B16..8: 34.7% 24.0% 4.3% direct: 5.3% skip:28.9% L0:42.5% L1:44.8% BI:12.7%
[info]: 8x8 transform intra:72.5% inter:53.7%
[info]: coded y,uvDC,uvAC intra: 81.5% 89.8% 75.8% inter: 25.1% 28.5% 15.3%
[info]: i16 v,h,dc,p: 43% 21% 7% 29%
[info]: i8 v,h,dc,ddl,ddr,vr,hd,vl,hu: 9% 9% 11% 9% 12% 12% 13% 12% 14%
[info]: i4 v,h,dc,ddl,ddr,vr,hd,vl,hu: 12% 14% 11% 7% 12% 11% 12% 9% 11%
[info]: i8c dc,h,v,p: 49% 21% 15% 16%
[info]: Weighted P-Frames: Y:10.7% UV:6.1%
[info]: ref P L0: 47.3% 8.8% 19.4% 6.7% 5.6% 3.5% 3.4% 1.8% 1.8% 1.5% 0.4% 0.0%
[info]: ref B L0: 73.9% 12.1% 5.4% 2.9% 1.9% 1.6% 1.2% 0.6% 0.3%
[info]: ref B L1: 93.5% 6.5%
[info]: kb/s:2352.48


Джерело: &
Подяка Sando7, slavik_v_z, Gelios'у за українську доріжку та постер

ЗАЛИШАЙТЕСЬ ЯКОМОГА ДОВШЕ НА РОЗДАЧІ
ЗАВАНТАЖИВ САМ - ДАЙ ЗАВАНТАЖИТИ ІНШИМ!


 Трекер:    Зареєстрований   

Завантажити / скачати фільм українською



відео для новачків



 Зареєстрований:   2017-04-17 17:36
 Розмір:   2.65 GB 
 Оцінка фільму:   5.7/10 (Голосів: 23)
   
Інші релізи
   Шульга / Southpaw (2015) 720p Ukr/Eng | Sub Eng igor911  26 / 1   6.96 GB   2017-04-17 17:08 
   Шульга / Southpaw (2015) 1080p Ukr/Eng | Sub Eng Bod_zik99  22 / 2   11.11 GB   2017-04-17 13:55 
   Шульга / Southpaw (2015) Gelios  115 / 0   1.45 GB   2017-04-17 13:00 
bot 
робот


З нами з: 30.09.07
Востаннє: 26.05.05
Повідомлень: 16771

2017-04-17 17:36  
Тему перенесено з Анонси релізів до форуму Фільми


igor911

taksist 
Свій


З нами з: 10.12.12
Востаннє: 24.04.17
Повідомлень: 107

2017-04-18 02:36  
дитина непогано зіграла. не герміона грейнджер але пристойно.
hose 
Свій


З нами з: 15.12.08
Востаннє: 20.04.17
Повідомлень: 128

2017-04-19 01:52  
нормальний фільм,краще Логана точно)))
olimpian1 
Частий відвідувач


З нами з: 19.10.13
Востаннє: 24.04.17
Повідомлень: 46

2017-04-19 17:46  
Рекомендую цей фільм для перегляду! Так, в сюжеті немає нічого нового, але все знято на високому рівні. І музичний супровід класний.
dj-liam 
Частий відвідувач


З нами з: 30.11.12
Востаннє: 24.04.17
Повідомлень: 48

2017-04-19 19:03  
hose
До чого тут Логан?

Zag. 
Свій


З нами з: 06.06.14
Востаннє: 21.04.17
Повідомлень: 136

2017-04-21 13:38  
dj-liam
Ну як це до чього, а побалакатиHappy

Дядько Моzapт 
Новенький


З нами з: 26.10.15
Востаннє: 23.04.17
Повідомлень: 5

2017-04-23 15:37  
Класне кіно, нема до чого вчепитися з претензіями! Післясмак залишає гіркуватий, правда.
Джейк зіграв дууууууже переконливо!

Ваш часовий пояс: GMT + 2 Години

Нова тема   Відповісти