Берсерк (Сезон 3) (серії 01-04 з 12) / Berserk (2017) 1080p Ukr/Jap | sub Ukr

Нові коментарі

Нова тема   Відповісти
Автор Повідомлення
ihabi 
Поважний учасник


З нами з: 01.03.13
Востаннє: 07.08.17
Повідомлень: 247

2017-04-17 11:31  
Берсерк (Сезон 3) (серії 01-04 з 12) / Berserk (2017) 1080p Ukr/Jap | sub Ukr

Берсерк (Сезон 3) (серії 01-04 з 12) / Berserk (2017) 1080p Ukr/Jap | sub Ukr


Жанр: пригоди, фентезі
Країна: Японія
Обмеження: 18+



6.22 (765 голосів)

Кінокомпанія: Liden Films, GEMBA, Millepensee
Режисер: Шін Ітаґакі
Ролі озвучують: Хіроякі Іванаґаб Каору Мідзухараб Йоуко Хікаса, Кадзуюкі Окітсу, Хіро Шімоно, Хірокі Ясумото, Тоа Юкінарі

Сюжет:
Продовження історії Чорного Мечника. Інцидент коло Вежі завершився, і Каску врятовано, але це лишень початок. Ґріфіс повернувся до нашого світу, аби стати його спасителем. Якою ціною прийде це спасіння? Ґац із супутниками вирушає у чергову подорож, і додому повернуться не всі.


Тривалість: 1 серія: 24:28 (цілком серій: 12)
Перелік серій
1. Розкриття світу
2. Зимова Подорож
3. Стяг Летючого Меча
4. Ліс Демонічних Звірів
Якість:
Відео:
кодек:
розмір кадру: 1920 х 1080
бітрейт: 3 072 кб/с

Аудіо # 1:
мова: українська
переклад: багатоголосий закадровий
кодек: FLAC 2.0
бітрейт: 1 365 кб/с

Аудіо # 2:
мова: японська
переклад: оригінал
кодек: 2.0
бітрейт: 128 кб/с

Субтитри:
мова: українська
тип: пререндерні (написи)
формат: *.ass

Субтитри:
мова: українська
тип: програмні (м'які)
формат: *.ass

Переклад виконано:
Переклад:
Переклад та лірика опенінґу: Enelira
Редакція перекладу: May

Озвучення виконано:
Текст читали: ihabi, Korzhik, Lomaev, Zebadiya, Draga, Enelira, Lis, Rina Lavrysh
Робота зі звуком: Enelira, ihabi
Постер:ihabi, лого - пан Олександр

Джерело: MelodicVoiceStudio
Info
General
Format :
Format version : Version 4 / Version 2
File size : 800 MiB
Duration : 24 min 28 s
Overall bit rate mode : Variable
Overall bit rate : 4 568 kb/s
Encoded date : UTC 2017-04-16 20:39:22
Writing application : mkvmerge v10.0.0 ('To Drown In You') 64bit
Writing library : libebml v1.3.4 + libmatroska v1.4.5
Cover : Yes
Attachments : segoeuiz.ttf / MTCORSVA.TTF / segoeuib.ttf / cover.jpg / OpenSans-Semibold.ttf

Video
ID : 1
Format : AVC
Format/Info : Advanced Video Codec
Format profile : [email protected]
Format settings, CABAC : Yes
Format settings, ReFrames : 4 frames
Codec ID : V_MPEG4/ISO/AVC
Duration : 24 min 27 s
Bit rate : 3 072 kb/s
Width : 1 920 pixels
Height : 1 080 pixels
Display aspect ratio : 16:9
Frame rate mode : Variable
Frame rate : 23.976 (23976/1000) FPS
Color space : YUV
Chroma subsampling : 4:2:0
Bit depth : 8 bits
Scan type : Progressive
Bits/(Pixel*Frame) : 0.062
Stream size : 536 MiB (67%)
Writing library : core 120 r2120 0c7dab9
Encoding settings : cabac=1 / ref=4 / deblock=1:1:1 / analyse=0x3:0x113 / me=umh / subme=8 / psy=1 / psy_rd=0.40:0.00 / mixed_ref=1 / me_range=16 / chroma_me=1 / trellis=1 / 8x8dct=1 / cqm=0 / deadzone=21,11 / fast_pskip=1 / chroma_qp_offset=-2 / threads=8 / sliced_threads=0 / nr=0 / decimate=1 / interlaced=0 / bluray_compat=0 / constrained_intra=0 / bframes=3 / b_pyramid=2 / b_adapt=2 / b_bias=0 / direct=3 / weightb=1 / open_gop=0 / weightp=2 / keyint=250 / keyint_min=23 / scenecut=40 / intra_refresh=0 / rc_lookahead=50 / rc=2pass / mbtree=1 / bitrate=3072 / ratetol=1.0 / qcomp=0.60 / qpmin=0 / qpmax=69 / qpstep=4 / cplxblur=20.0 / qblur=0.5 / vbv_maxrate=6144 / vbv_bufsize=15360 / nal_hrd=none / ip_ratio=1.40 / aq=1:0.60
Default : Yes
Forced : No

Audio #1
ID : 2
Format : FLAC
Format/Info : Free Lossless Audio Codec
Codec ID : A_FLAC
Duration : 24 min 27 s
Bit rate mode : Variable
Bit rate : 1 365 kb/s
Channel(s) : 2 channels
Channel positions : Front: L R
Sampling rate : 48.0 kHz
Frame rate : 11.719 FPS (4096 spf)
Bit depth : 24 bits
Stream size : 239 MiB (30%)
Title : MVS
Writing library : libFLAC 20080709 (UTC 2008-07-09)
Language : Ukrainian
Default : Yes
Forced : Yes

Audio #2
ID : 3
Format :
Format/Info : Advanced Audio Codec
Format profile : LC
Codec ID : A_AAC
Duration : 24 min 27 s
Bit rate : 128 kb/s
Channel(s) : 2 channels
Channel positions : Front: L R
Sampling rate : 44.1 kHz
Frame rate : 43.066 FPS (1024 spf)
Compression mode : Lossy
Stream size : 22.4 MiB (3%)
Title : Jpn
Language : Japanese
Default : No
Forced : No

Text #1
ID : 4
Format : ASS
Codec ID : S_TEXT/ASS
Codec ID/Info : Advanced Sub Station Alpha
Duration : 24 min 28 s
Bit rate : 73 b/s
Count of elements : 57
Compression mode : Lossless
Stream size : 13.2 KiB (0%)
Title : Forced
Language : Ukrainian
Default : Yes
Forced : Yes

Text #2
ID : 5
Format : ASS
Codec ID : S_TEXT/ASS
Codec ID/Info : Advanced Sub Station Alpha
Duration : 24 min 28 s
Bit rate : 212 b/s
Count of elements : 367
Compression mode : Lossless
Stream size : 38.1 KiB (0%)
Title : Gedet
Language : Ukrainian
Default : No
Forced : No
Скріншоти








Додано 3,4 серії




Особиста оцінка: 9 - давно не бачив настільки якісне кіно


Авторський реліз (завантажувати можна без реєстрації)
 Трекер:    Зареєстрований   

Завантажити / скачати аніме українською



відео для новачків



 Зареєстрований:   2017-05-09 18:03
 Розмір:   3.11 GB 
 Оцінка аніме:   9.8/10 (Голосів: 5)
   
ihabi 
Поважний учасник


З нами з: 01.03.13
Востаннє: 07.08.17
Повідомлень: 247

2017-05-09 18:06  

Додано 3,4 серії

civ 
VIP


З нами з: 16.02.11
Востаннє: 18.08.17
Повідомлень: 453

2017-05-10 20:58  
Хто знає, в чому прикол? Вже добу стоїть на завантаженні, але торент-клієнт жодного сіду не бачить. Досі скачав 0%...
EvGaS 
Відео Гуртом - підтримка та поширення
Відео Гуртом - підтримка та поширення


З нами з: 27.02.12
Востаннє: 18.08.17
Повідомлень: 3332

2017-05-10 21:34  
civ, порт відкритий? Прокинутий через роутер? Як поводить себе провайдер?
civ 
VIP


З нами з: 16.02.11
Востаннє: 18.08.17
Повідомлень: 453

2017-05-10 22:41  
Так, з моїми конфігами все в порядку. Бачу, з’явилися сіди, процес поповз. Але так часто буває - сід в статистиці на Толоці є, але мій клієнт достукатися до нього не може...
NeetScrool 
Відео Гуртом - фільмокрай
Відео Гуртом - фільмокрай


З нами з: 10.01.13
Востаннє: 18.08.17
Повідомлень: 2613

2017-05-10 22:43  
EvGaS
civ

У мене вже місяць така проблема. Порти відкриті.
З рутрекером та хдклабом такої проблеми немає.

civ 
VIP


З нами з: 16.02.11
Востаннє: 18.08.17
Повідомлень: 453

2017-05-10 22:46  
У мене таке пару років. Але це проблема не з сервером, а з доступом між клієнтами різних провайдерів.
Ваш часовий пояс: GMT + 2 Години

Нова тема   Відповісти