Капоте / Capote (2005) 720p 2xUkr/Eng | Sub Eng

Нові коментарі

Нова тема   Відповісти
Автор Повідомлення
Anonymous 







2017-04-17 00:38  
Капоте / Capote (2005) 720p 2xUkr/Eng | Sub Eng


Жанр: біографічний, драма, кримінальний
Країна: США

Оскар, Золотий глобус, премії Британської кіноакадемії та Гільдії акторів
за Найкращу чоловічу роль (Філіп Сеймур Гоффман)


Кінокомпанія: Sony Pictures Classics, A-Line Pictures, Cooper's Town Productions, United Artists
Режисер: Беннетт Міллер / Bennett Miller
Актори: Філіп Сеймур Гоффман / Philip Seymour Hoffman, Кетрін Кінер / Catherine Keener, Кліфтон Коллінз мол. / Clifton Collins Jr., Еллі Мікельсон / Allie Mickelson, Келсі Стефенсон / Kelci Stephenson, Крейґ Арчибальд / Craig Archibald, Бронвен Коулмен / Bronwen Coleman, Кейт Шиндл / Kate Shindle, Девід Вілсон Барнс / David Wilson Barnes, Майкл Дж. Берг / Michael J. Burg, Квесі Амеяу / Kwesi Ameyaw, Кріс Купер / Chris Cooper та інші

Сюжет:
"Капоте" - біографічна драма Беннетта Міллера про життя американського романіста Трумена Капоте
У 1959 році відомому письменникові Трумену Капоте потрапила на очі газетна замітка, яка круто змінила його життя та літературну кар'єру. У ній йшлося про бійню в Канзасі, коли двоє бандитів з неймовірною жорстокістю розправилися з сім'єю з чотирьох чоловік.
Вражений, Капоте вирішив особисто вивчити усі матеріали, щоб зрозуміти, як таке могло статися - і написати про це. Автор романтичних і ніжних книг "Голос трави" та "Сніданок у Тіффані" не підозрював, що просте журналістське розслідування поглине кілька років його життя і призведе до створення одного з найпотужніших психологічних трилерів в історії - "З холодним серцем".
Цікаві факти:

• Фільм було знято за 36 днів восени 2004 року у місті Вінніпег, Канада.
• Прем'єра фільму відбулася 30 вересня 2005 року на день народження Трумена Капоте.
• Філіп Сеймур Гоффман скинув більше 18 кілограмів ваги для своєї ролі.
• Роль фотографа Річарда Еведона зіграв оператор фільму Едам Кіммел.
• «Капоте» - режисерський дебют Беннетта Міллера в ігровому кіно.

Рейтинг MPAA: R - особам до 17 років обов'язкова присутність батьків або дорослого опікуна
Вікова категорія: 16+

Тривалість: 01:54:18
Якість: 720p
Відео:
кодек:
розмір кадру: 1280 х 544
бітрейт: 4835 кб/с

Аудіо # 1:
мова: українська
переклад: багатоголосий закадровий
кодек: 2.0
бітрейт: 192 кб/с

Аудіо # 2:
мова: українська
переклад: багатоголосий закадровий
ролі озвучили: Анатолій Пашнін, Володимир Терещук і два жіночих голоси
кодек: 5.1
бітрейт: 384 кб/с

Аудіо # 2:
мова: англійська
переклад: оригінал
кодек: 5.1
бітрейт: 640 кб/с

Субтитри # 1-2:
мова: англійська (повні, SDH)
тип: програмні (м'які)
формат: *.srt

Збережено оригінальні розділи, як на Blu-ray
Info
Код:
Complete name               : Capote (2005) [2xUkr,Eng sub.Eng] 720p [Hurtom].
Format                      :
Format version              : Version 4 / Version 2
File size                   : 4.83 GiB
Duration                    : 1 h 54 min
Overall bit rate            : 6 053 kb/s
Movie name                  : Капоте / Capote (2005) [2xUkr,Eng sub.Eng] 720p [Hurtom]
Released date               : 2005
Writing library             : libebml v1.3.4 + libmatroska v1.4.5
Cover                       : Yes
Comment                     : http://www.imdb.com/title/tt0379725/
Attachments                 : cover.jpg
ARTIST                      : Філіп Сеймур Гоффман / Philip Seymour Hoffman, Кетрін Кінер / Catherine Keener, Кліфтон Коллінз мол. / Clifton Collins Jr., Еллі Мікельсон / Allie Mickelson, Келсі Стефенсон / Kelci Stephenson, Крейґ Арчибальд / Craig Archibald, Бронвен Коулмен / Bronwen Coleman, Кейт Шиндл / Kate Shindle, Девід Вілсон Барнс / David Wilson Barnes, Майкл Дж. Берг / Michael J. Burg, Квесі Амеяу / Kwesi Ameyaw, Кріс Купер / Chris Cooper та інші
DIRECTOR                    : Беннетт Міллер / Bennett Miller
GENRE                       : біографічний, драма, кримінальний
SYNOPSIS                    : "Капоте" - біографічна драма Беннетта Міллера про життя американського романіста Трумена Капоте, якому у 1959 році потрапила на очі стаття в газеті, що круто змінила його життя та літературну кар'єру. Там було написано про бійню в Канзасі, коли двоє бандитів з неймовірною жорстокістю розправилися з родиною з чотирьох осіб.  / Фільм був номінований як найкраща картина на Оскар у 2006 році, Філіп Сеймур Гоффман став переможцем у номінації "найкраща чоловіча роль".
Url                         : https://toloka.to/t81383

Video
ID                          : 1
Format                      : AVC
Format/Info                 : Advanced Video Codec
Format profile              : [email protected]
Format settings, CABAC      : Yes
Format settings, ReFrames   : 5 frames
Codec ID                    : V_MPEG4/ISO/AVC
Duration                    : 1 h 54 min
Bit rate                    : 4 835 kb/s
Width                       : 1 280 pixels
Height                      : 544 pixels
Display aspect ratio        : 2.35:1
Frame rate mode             : Constant
Frame rate                  : 23.976 FPS
Color space                 : YUV
Chroma subsampling          : 4:2:0
Bit depth                   : 8 bits
Scan type                   : Progressive
Bits/(Pixel*Frame)          : 0.290
Stream size                 : 3.86 GiB (80%)
Title                       : Капоте / Capote (2005) 720p [REVEiLLE]
Writing library             : core 66 r1110 05afd8e
Encoding settings           : cabac=1 / ref=5 / deblock=1:0:0 / analyse=0x3:0x133 / me=umh / subme=7 / psy_rd=1.0:0.0 / mixed_ref=1 / me_range=16 / chroma_me=1 / trellis=1 / 8x8dct=1 / cqm=0 / deadzone=21,11 / chroma_qp_offset=-2 / threads=12 / nr=0 / decimate=1 / mbaff=0 / bframes=3 / b_pyramid=1 / b_adapt=1 / b_bias=0 / direct=1 / wpredb=1 / keyint=250 / keyint_min=25 / scenecut=40(pre) / rc=2pass / bitrate=4835 / ratetol=1.0 / qcomp=0.60 / qpmin=10 / qpmax=51 / qpstep=4 / cplxblur=20.0 / qblur=0.5 / ip_ratio=1.40 / pb_ratio=1.30 / aq=1:1.00
Language                    : English
Default                     : Yes
Forced                      : No

Audio #1
ID                          : 2
Format                      : AC-3
Format/Info                 : Audio Coding 3
Format settings, Endianness : Big
Codec ID                    : A_AC3
Duration                    : 1 h 54 min
Bit rate mode               : Constant
Bit rate                    : 192 kb/s
Channel(s)                  : 2 channels
Channel positions           : Front: L R
Sampling rate               : 48.0 kHz
Frame rate                  : 31.250 FPS (1536 spf)
Bit depth                   : 16 bits
Compression mode            : Lossy
Stream size                 : 157 MiB (3%)
Title                       : MVO [1+1] 2.0 192 Kbps [Hurtom-krigg070]
Language                    : Ukrainian
Service kind                : Complete Main
Default                     : Yes
Forced                      : Yes

Audio #2
ID                          : 3
Format                      : AC-3
Format/Info                 : Audio Coding 3
Format settings, Endianness : Big
Codec ID                    : A_AC3
Duration                    : 1 h 54 min
Bit rate mode               : Constant
Bit rate                    : 384 kb/s
Channel(s)                  : 6 channels
Channel positions           : Front: L C R, Side: L R, LFE
Sampling rate               : 48.0 kHz
Frame rate                  : 31.250 FPS (1536 spf)
Bit depth                   : 16 bits
Compression mode            : Lossy
Stream size                 : 314 MiB (6%)
Title                       : MVO [Enter-фільм] 5.1 384 Kbps [Hurtom-Lan,OlegCena,POMEO]
Language                    : Ukrainian
Service kind                : Complete Main
Default                     : No
Forced                      : No

Audio #3
ID                          : 4
Format                      : AC-3
Format/Info                 : Audio Coding 3
Format settings, Endianness : Big
Codec ID                    : A_AC3
Duration                    : 1 h 54 min
Bit rate mode               : Constant
Bit rate                    : 640 kb/s
Channel(s)                  : 6 channels
Channel positions           : Front: L C R, Side: L R, LFE
Sampling rate               : 48.0 kHz
Frame rate                  : 31.250 FPS (1536 spf)
Bit depth                   : 16 bits
Compression mode            : Lossy
Stream size                 : 523 MiB (11%)
Title                       : Original, 5.1 640 Kbps
Language                    : English
Service kind                : Complete Main
Default                     : No
Forced                      : No

Text #1
ID                          : 5
Format                      : UTF-8
Codec ID                    : S_TEXT/UTF8
Codec ID/Info               : UTF-8 Plain Text
Duration                    : 1 h 45 min
Bit rate                    : 48 b/s
Count of elements           : 1124
Stream size                 : 37.2 KiB (0%)
Title                       : Eng full
Language                    : English
Default                     : No
Forced                      : No

Text #2
ID                          : 6
Format                      : UTF-8
Codec ID                    : S_TEXT/UTF8
Codec ID/Info               : UTF-8 Plain Text
Duration                    : 1 h 46 min
Bit rate                    : 53 b/s
Count of elements           : 1394
Stream size                 : 41.2 KiB (0%)
Title                       : Eng SDH
Language                    : English
Default                     : No
Forced                      : No

Menu
00:00:00.000                : en:Start
00:03:27.867                : en:Problem Novels
00:08:10.201                : en:Alven Dewey, KBI
00:11:32.401                : en:People Here Won't Talk To Me
00:15:29.835                : en:Pretty Shattered
00:18:58.968                : en:Just Talk
00:22:49.936                : en:94% Recall
00:27:13.436                : en:Apprehended
00:31:42.070                : en:First Impressions
00:36:51.904                : en:Guilty
00:39:09.571                : en:Worlds Converge
00:43:31.272                : en:Unlimited Visitation
00:49:24.906                : en:Not So Different
00:53:33.206                : en:In Cold Blood
00:57:40.373                : en:One Missing Piece
01:02:16.773                : en:You've Got Your Ending
01:07:41.973                : en:Outsider
01:09:43.040                : en:1st Public Reading
01:13:23.440                : en:What's He GotTo Lose?
01:15:56.974                : en:One Singular Reason
01:19:33.808                : en:How Could I?
01:23:32.275                : en:November 14, 1959
01:28:04.475                : en:Desperate To Be Done
01:31:41.343                : en:Torture
01:35:08.543                : en:Unable To Make It
01:39:23.144                : en:Goodbyes
01:43:32.845                : en:For The Life Of Me
01:48:56.479                : en:End Credits
01:54:20.000                : en:End
Ще скріншоти:


Джерело: &
За українську доріжку з Ентер-фільму подяка Lan'у, OlegCena та POMEO, за доріжку від 1+1 подяка krigg070.

Реліз оновлено!
Додано українську доріжку від 1+1


ЗАЛИШАЙТЕСЬ ЯКОМОГА ДОВШЕ НА РОЗДАЧІ
ЗАВАНТАЖИВ САМ - ДАЙ ЗАВАНТАЖИТИ ІНШИМ!


 Трекер:    Зареєстрований   

Завантажити / скачати фільм українською



відео для новачків



 Зареєстрований:   2017-04-17 15:58
 Розмір:   4.83 GB 
 Оцінка фільму:   4.5/10 (Голосів: 17)
   
Інші релізи
   Капоте / Capote (2005) Ukr/Eng | Sub Eng Lan  5 / 0   2.18 GB   2013-03-25 16:17 
Patriot_ukr 
VIP


З нами з: 06.04.15
Востаннє: 17.08.17
Повідомлень: 1758

2017-04-17 10:40  
Anonymous написано:
"Звичайні вбивства"
В українському перекладі - "З холодним серцем" ( https://toloka.to/t55235, https://toloka.to/t51674)
ika1963 
Відео Гуртом - дизайнер
Відео Гуртом - дизайнер


З нами з: 13.05.10
Востаннє: 15.08.17
Повідомлень: 226

2017-04-17 15:16  
Дякую за доріжку від "1+1"...
Anonymous 







2017-04-17 16:00  

Реліз оновлено!
Додано українську доріжку від 1+1


Ваш часовий пояс: GMT + 2 Години

Нова тема   Відповісти