Останні дні на Марсі / The Last Days on Mars (2013) 720p Ukr/Eng | Sub Ukr/Eng

Нові коментарі

Нова тема   Відповісти
Автор Повідомлення
Anonymous 







2017-04-15 11:25  
Останні дні на Марсі / The Last Days on Mars (2013) 720p Ukr/Eng | Sub Ukr/Eng


Жанр: жахи, фантастика, трилер
Країна: Велика Британія, Ірландія



Кінокомпанія: British Film Institute (BFI), Irish Film Board, Qwerty Films
Режисер: Рорі Робінсон / Ruairi Robinson
Актори: Лів Шрайбер / Liev Schreiber, Еліас Котеас / Elias Koteas, Ромола Ґарай / Romola Garai, Олівія Вільямс / Olivia Williams, Джонні Гарріс / Johnny Harris, Ґоран Костіч / Goran Kostic, Том Каллен / Tom Cullen, Юсра Варсаме / Yusra Warsama, Патрік Джозеф Бернс / Patrick Joseph Byrnes, Льюїс Маклауд / Lewis Macleod та інші

Сюжет:
В останні дні перебування на Марсі астронавти роблять вражаюче відкриття: на зібраних ними зразках ґрунту виявилися мікроскопічні сліди якоїсь форми життя. Незабаром землян повинен забрати корабель, і години, що залишились, вони вирішують витратити на збір додаткових доказів, для чого повертаються у марсіанську долину.

Рейтинг MPAA: R - особам до 17 років обов'язкова присутність батьків або дорослого опікуна
Вікова категорія: 16+
Тривалість: 01:38:29
Якість: 720p
Відео:
кодек:
розмір кадру: 1280 х 544
бітрейт: 5618 кб/с [crf=17.3]

Аудіо # 1:
мова: українська
переклад: багатоголосий закадровий | ТРК "Україна"
кодек: 2.0
бітрейт: 192 кб/с
ролі озвучили: Анатолій Зіновенко, Олесь Гімбаржевський, Лідія Муращенко та Михайло Войчук

Аудіо # 2:
мова: англійська
переклад: оригінал
кодек: 5.1
бітрейт: 640 кб/с

Субтитри # 1:
мова: українська
тип: програмні (м'які)
формат: *.srt
примітка: субтитри також є окремо на сервері доріжок

Субтитри # 2:
мова: англійська (SDH)
тип: програмні (м'які)
формат: *.srt

Збережено оригінальні розділи, як на Blu-ray
Info
Код:
Complete name               : The Last Days on Mars (2013) [Ukr,Eng sub.Ukr,Eng] 720p [Hurtom].
Format                      :
Format version              : Version 4 / Version 2
File size                   : 4.55 GiB
Duration                    : 1 h 38 min
Overall bit rate            : 6 608 kb/s
Movie name                  : Останні дні на Марсі / The Last Days on Mars (2013) [Ukr,Eng sub.Ukr,Eng] 720p [Hurtom]
Released date               : 2013
Writing library             : libebml v1.3.4 + libmatroska v1.4.5
Cover                       : Yes
Comment                     : http://www.imdb.com/title/tt1709143/
Attachments                 : cover.jpg
ARTIST                      : Лів Шрайбер / Liev Schreiber, Еліас Котеас / Elias Koteas, Ромола Ґарай / Romola Garai, Олівія Вільямс / Olivia Williams, Джонні Гарріс / Johnny Harris, Ґоран Костіч / Goran Kostic, Том Каллен / Tom Cullen, Юсра Варсаме / Yusra Warsama, Патрік Джозеф Бернс / Patrick Joseph Byrnes, Льюїс Маклауд / Lewis Macleod та інші
DIRECTOR                    : Рорі Робінсон / Ruairi Robinson
GENRE                       : жахи, фантастика, трилер
SYNOPSIS                    : В останні дні перебування на Марсі астронавти роблять вражаюче відкриття: на зібраних ними зразках ґрунту виявилися мікроскопічні сліди якоїсь форми життя. Незабаром землян повинен забрати корабель, і години, що залишились, вони вирішують витратити на збір додаткових доказів, для чого повертаються у марсіанську долину.
Url                         : https://toloka.to/t81346

Video
ID                          : 1
Format                      : AVC
Format/Info                 : Advanced Video Codec
Format profile              : High@L4.1
Format settings, CABAC      : Yes
Format settings, ReFrames   : 12 frames
Codec ID                    : V_MPEG4/ISO/AVC
Duration                    : 1 h 38 min
Bit rate                    : 5 774 kb/s
Width                       : 1 280 pixels
Height                      : 544 pixels
Display aspect ratio        : 2.35:1
Frame rate mode             : Constant
Frame rate                  : 23.976 (24000/1001) FPS
Color space                 : YUV
Chroma subsampling          : 4:2:0
Bit depth                   : 8 bits
Scan type                   : Progressive
Bits/(Pixel*Frame)          : 0.346
Stream size                 : 3.97 GiB (87%)
Title                       : Останні дні на Марсі / The Last Days on Mars (2013) 720p [HDWing]
Writing library             : core 140 r2377+40 929f149 tMod [8-bit@4:2:0 X86_64]
Encoding settings           : cabac=1 / ref=12 / deblock=1:-3:-3 / analyse=0x3:0x113 / me=umh / subme=10 / psy=1 / fade_compensate=0.00 / psy_rd=1.10:0.00 / mixed_ref=1 / me_range=32 / chroma_me=1 / trellis=2 / 8x8dct=1 / cqm=0 / deadzone=21,11 / fast_pskip=0 / chroma_qp_offset=-2 / threads=18 / lookahead_threads=3 / sliced_threads=0 / nr=0 / decimate=0 / interlaced=0 / bluray_compat=0 / constrained_intra=0 / fgo=0 / bframes=8 / b_pyramid=2 / b_adapt=2 / b_bias=0 / direct=3 / weightb=1 / open_gop=0 / weightp=2 / keyint=240 / keyint_min=24 / scenecut=40 / intra_refresh=0 / rc=crf / mbtree=0 / crf=17.3000 / qcomp=0.70 / qpmin=0:0:0 / qpmax=69:69:69 / qpstep=4 / ip_ratio=1.20 / pb_ratio=1.20 / aq=4:0.90 / aq-sensitivity=10.00 / aq-factor=1.00:1.00:1.00 / aq2=0 / aq3=0
Language                    : English
Default                     : Yes
Forced                      : No

Audio #1
ID                          : 2
Format                      : AC-3
Format/Info                 : Audio Coding 3
Format settings, Endianness : Big
Codec ID                    : A_AC3
Duration                    : 1 h 38 min
Bit rate mode               : Constant
Bit rate                    : 192 kb/s
Channel(s)                  : 2 channels
Channel positions           : Front: L R
Sampling rate               : 48.0 kHz
Frame rate                  : 31.250 FPS (1536 spf)
Bit depth                   : 16 bits
Compression mode            : Lossy
Stream size                 : 135 MiB (3%)
Title                       : MVO [Ukraina, NLO TV] 2.0 192 Kbps [Hurtom-Gelios,slavik_v_z,Sando7]
Language                    : Ukrainian
Service kind                : Complete Main
Default                     : Yes
Forced                      : Yes

Audio #2
ID                          : 3
Format                      : AC-3
Format/Info                 : Audio Coding 3
Format settings, Endianness : Big
Codec ID                    : A_AC3
Duration                    : 1 h 38 min
Bit rate mode               : Constant
Bit rate                    : 640 kb/s
Channel(s)                  : 6 channels
Channel positions           : Front: L C R, Side: L R, LFE
Sampling rate               : 48.0 kHz
Frame rate                  : 31.250 FPS (1536 spf)
Bit depth                   : 16 bits
Compression mode            : Lossy
Stream size                 : 451 MiB (10%)
Title                       : Original, 5.1 640 Kbps
Language                    : English
Service kind                : Complete Main
Default                     : No
Forced                      : No

Text #1
ID                          : 4
Format                      : UTF-8
Codec ID                    : S_TEXT/UTF8
Codec ID/Info               : UTF-8 Plain Text
Duration                    : 1 h 36 min
Bit rate                    : 60 b/s
Count of elements           : 862
Stream size                 : 42.8 KiB (0%)
Title                       : Ukr full [Blu-ray] [Hurtom-igor911]
Language                    : Ukrainian
Default                     : No
Forced                      : No

Text #2
ID                          : 5
Format                      : UTF-8
Codec ID                    : S_TEXT/UTF8
Codec ID/Info               : UTF-8 Plain Text
Duration                    : 1 h 30 min
Bit rate                    : 49 b/s
Count of elements           : 1009
Stream size                 : 32.6 KiB (0%)
Title                       : Eng SDH
Language                    : English
Default                     : No
Forced                      : No

Menu
00:00:00.000                : en:00:00:00.000
00:07:46.383                : en:00:07:46.383
00:16:00.710                : en:00:16:00.710
00:23:27.364                : en:00:23:27.364
00:28:57.736                : en:00:28:57.736
00:39:09.013                : en:00:39:09.013
00:47:47.656                : en:00:47:47.656
00:53:25.202                : en:00:53:25.202
01:04:03.298                : en:01:04:03.298
01:11:38.169                : en:01:11:38.169
01:22:46.128                : en:01:22:46.128
01:32:18.867                : en:01:32:18.867


Джерело: & &
Подяка Gelios'у, slavik_v_z, Sando7, igor911 за українські постер, звук та субтитри

ЗАЛИШАЙТЕСЬ ЯКОМОГА ДОВШЕ НА РОЗДАЧІ
ЗАВАНТАЖИВ САМ - ДАЙ ЗАВАНТАЖИТИ ІНШИМ!


 Трекер:    Зареєстрований   

Завантажити / скачати фільм українською



відео для новачків



 Зареєстрований:   2017-04-15 13:32
 Розмір:   4.55 GB 
 Оцінка фільму:   5.3/10 (Голосів: 25)
   
Інші релізи
   Останні дні на Марсі / The Last Days on Mars (2013) Gelios  29 / 0   1.45 GB   2017-04-15 07:23 
Andy_H 
Новенький


З нами з: 20.03.12
Востаннє: 19.10.17
Повідомлень: 2

2017-04-26 21:54  
Фільм відверто слабкий.
Любителі фантастики йдуть далі, може сподобатись хіба фанам зомбаків.

casper101 
Поважний учасник


З нами з: 03.12.09
Востаннє: 20.10.17
Повідомлень: 232

2017-06-15 12:56  
потрібно чимось заохочувати щоб залишалися ЯКОМОГА ДОВШЕ НА РОЗДАЧІ.
Anonymous 







2017-06-15 22:42  
casper101 написано:
потрібно чимось заохочувати

чим? сумління та совісті хіба не досить?

Ваш часовий пояс: GMT + 2 Години

Нова тема   Відповісти