Кроляча нора / Rabbit Hole (2010) 720p Ukr/Eng | Sub Eng

Нові коментарі

Нова тема   Відповісти
Автор Повідомлення
Anonymous 







2017-04-14 22:24  
Кроляча нора / Rabbit Hole (2010) 720p Ukr/Eng | Sub Eng


Жанр: драма
Країна: США



Кінокомпанія: Olympus Pictures, Blossom Films, OddLot Entertainment
Режисер: Джон Кемерон Мітчелл / John Cameron Mitchell
Актори: Ніколь Кідмен / Nicole Kidman, Аарон Екгарт / Aaron Eckhart, Даєнн Віест / Dianne Wiest, Майлз Теллер / Miles Teller, Теммі Бланчард / Tammy Blanchard, Сандра О / Sandra Oh, Джанкарло Еспозіто / Giancarlo Esposito, Джон Тенні / Jon Tenney, Стефен Мейлер / Stephen Mailer, Майк Дойл / Mike Doyle та інші

Сюжет:
Вісім місяців тому в сім'ї Гауі і Беккі Корбеттів сталася страшна трагедія - загинув їхній маленький син. Від її наслідків подружжя не може оговтатися досі. Кожен по-своєму намагається відновити душевний спокій: Гауі грає в сквош з друзями, Бекка проводить цілі дні біля плити, обидва шукають підтримки в групах психологічної взаємодопомоги. Але час йде, а всі зусилля залишаються марними. Шлюб тріщить по швах, стосунки з рідними напружені до межі, коло спілкування скорочується на очах. Парадоксальним чином, промінь надії пробиває пелену безнадії, коли доля зводить Бекку з мимовільним винуватцем їх нещасть - юним автором коміксів Джейсоном. Разом героям належить зрозуміти, чи затягуються рани минулого.

Рейтинг MPAA: PG-13 - дітям до 13 років перегляд не бажаний
Вікова категорія: 12+
Тривалість: 01:31:28
Якість: 720p
Відео:
кодек:
розмір кадру: 1280 х 720
бітрейт: 4986 кб/с [crf=16.5]

Аудіо # 1:
мова: українська
переклад: багатоголосий закадровий
кодек: 2.0
бітрейт: 192 кб/с

Аудіо # 2:
мова: англійська
переклад: оригінал
кодек: 5.1
бітрейт: 640 кб/с

Аудіо # 3:
мова: англійська
переклад: коментарі
кодек: 2.0
бітрейт: 125 кб/с

Субтитри:
мова: англійська
тип: програмні (м'які)
формат: *.srt

Збережено оригінальні розділи, як на Blu-ray
Info
Код:
Complete name               : Rabbit Hole (2010) [Ukr,Eng sub.Eng] 720p [Hurtom].
Format                      :
Format version              : Version 4 / Version 2
File size                   : 3.80 GiB
Duration                    : 1 h 31 min
Overall bit rate            : 5 946 kb/s
Movie name                  : Кроляча нора / Rabbit Hole (2010) [Ukr,Eng sub.Eng] 720p [Hurtom]
Released date               : 2010
Writing library             : libebml v1.3.4 + libmatroska v1.4.5
Cover                       : Yes
Comment                     : http://www.imdb.com/title/tt0935075/
Attachments                 : cover.jpg
ARTIST                      : Ніколь Кідмен / Nicole Kidman, Аарон Екгарт / Aaron Eckhart, Даєнн Віест / Dianne Wiest, Майлз Теллер / Miles Teller, Теммі Бланчард / Tammy Blanchard, Сандра О / Sandra Oh, Джанкарло Еспозіто / Giancarlo Esposito, Джон Тенні / Jon Tenney, Стефен Мейлер / Stephen Mailer, Майк Дойл / Mike Doyle та інші
DIRECTOR                    : Джон Кемерон Мітчелл / John Cameron Mitchell
GENRE                       : драма
SYNOPSIS                    : Вісім місяців тому в сім'ї Гауі і Беккі Корбеттів сталася страшна трагедія - загинув їхній маленький син. Від її наслідків подружжя не може оговтатися досі. Кожен по-своєму намагається відновити душевний спокій: Гауі грає в сквош з друзями, Бекка проводить цілі дні біля плити, обидва шукають підтримки в групах психологічної взаємодопомоги. Але час йде, а всі зусилля залишаються марними. Шлюб тріщить по швах, стосунки з рідними напружені до межі, коло спілкування скорочується на очах. Парадоксальним чином, промінь надії пробиває пелену безнадії, коли доля зводить Бекку з мимовільним винуватцем їх нещасть - юним автором коміксів Джейсоном. Разом героям належить зрозуміти, чи затягуються рани минулого.
Url                         : https://toloka.to/t81337

Video
ID                          : 1
Format                      : AVC
Format/Info                 : Advanced Video Codec
Format profile              : [email protected]
Format settings, CABAC      : Yes
Format settings, ReFrames   : 8 frames
Codec ID                    : V_MPEG4/ISO/AVC
Duration                    : 1 h 31 min
Bit rate                    : 4 986 kb/s
Width                       : 1 280 pixels
Height                      : 720 pixels
Display aspect ratio        : 16:9
Frame rate mode             : Constant
Frame rate                  : 23.976 (24000/1001) FPS
Color space                 : YUV
Chroma subsampling          : 4:2:0
Bit depth                   : 8 bits
Scan type                   : Progressive
Bits/(Pixel*Frame)          : 0.226
Stream size                 : 3.19 GiB (84%)
Title                       : Кроляча нора / Rabbit Hole (2010) 720p [HDClub]
Writing library             : core 115 r1936kMod 7a9e08d
Encoding settings           : cabac=1 / ref=8 / deblock=1:-3:-3 / analyse=0x3:0x113 / me=umh / subme=10 / psy=1 / fade_compensate=0.00 / psy_rd=1.00:0.00 / mixed_ref=1 / me_range=32 / chroma_me=1 / trellis=2 / 8x8dct=1 / cqm=0 / deadzone=21,11 / fast_pskip=0 / chroma_qp_offset=-2 / threads=6 / sliced_threads=0 / nr=0 / decimate=0 / interlaced=0 / bluray_compat=0 / constrained_intra=0 / bframes=8 / b_pyramid=2 / b_adapt=2 / b_bias=0 / direct=3 / weightb=1 / open_gop=0 / weightp=2 / keyint=240 / keyint_min=24 / scenecut=40 / intra_refresh=0 / rc=crf / mbtree=0 / crf=16.5000 / qcomp=0.60 / qpmin=0 / qpmax=69 / qpstep=4 / ip_ratio=1.40 / pb_ratio=1.30 / aq=1:0.80
Language                    : English
Default                     : Yes
Forced                      : No

Audio #1
ID                          : 2
Format                      : AC-3
Format/Info                 : Audio Coding 3
Format settings, Endianness : Big
Codec ID                    : A_AC3
Duration                    : 1 h 31 min
Bit rate mode               : Constant
Bit rate                    : 192 kb/s
Channel(s)                  : 2 channels
Channel positions           : Front: L R
Sampling rate               : 48.0 kHz
Frame rate                  : 31.250 FPS (1536 spf)
Bit depth                   : 16 bits
Compression mode            : Lossy
Stream size                 : 126 MiB (3%)
Title                       : MVO [Volya Cine+] 2.0 192 Kbps [Hurtom-Gelios,Sando7]
Language                    : Ukrainian
Service kind                : Complete Main
Default                     : Yes
Forced                      : Yes

Audio #2
ID                          : 3
Format                      : AC-3
Format/Info                 : Audio Coding 3
Format settings, Endianness : Big
Codec ID                    : A_AC3
Duration                    : 1 h 31 min
Bit rate mode               : Constant
Bit rate                    : 640 kb/s
Channel(s)                  : 6 channels
Channel positions           : Front: L C R, Side: L R, LFE
Sampling rate               : 48.0 kHz
Frame rate                  : 31.250 FPS (1536 spf)
Bit depth                   : 16 bits
Compression mode            : Lossy
Stream size                 : 419 MiB (11%)
Title                       : Original, 5.1 640 Kbps
Language                    : English
Service kind                : Complete Main
Default                     : No
Forced                      : No

Audio #3
ID                          : 4
Format                      :
Format/Info                 : Advanced Audio Codec
Format profile              : LC
Codec ID                    : A_AAC
Duration                    : 1 h 31 min
Bit rate                    : 125 kb/s
Channel(s)                  : 2 channels
Channel positions           : Front: L R
Sampling rate               : 48.0 kHz
Frame rate                  : 46.875 FPS (1024 spf)
Compression mode            : Lossy
Stream size                 : 81.5 MiB (2%)
Title                       : Commentary, 2.0 125 Kbps
Language                    : English
Default                     : No
Forced                      : No

Text
ID                          : 5
Format                      : UTF-8
Codec ID                    : S_TEXT/UTF8
Codec ID/Info               : UTF-8 Plain Text
Duration                    : 1 h 23 min
Bit rate                    : 62 b/s
Count of elements           : 953
Stream size                 : 37.9 KiB (0%)
Title                       : Eng full
Language                    : English
Default                     : No
Forced                      : No

Menu
00:00:00.000                : en:00:00:00.000
00:04:13.837                : en:00:04:13.837
00:07:42.295                : en:00:07:42.295
00:11:24.767                : en:00:11:24.767
00:19:34.924                : en:00:19:34.924
00:24:58.288                : en:00:24:58.288
00:34:38.910                : en:00:34:38.910
00:39:10.431                : en:00:39:10.431
00:43:45.915                : en:00:43:45.915
00:49:49.153                : en:00:49:49.153
00:57:16.099                : en:00:57:16.099
01:04:46.549                : en:01:04:46.549
01:09:04.432                : en:01:09:04.432
01:14:28.172                : en:01:14:28.172
01:21:16.580                : en:01:21:16.580
01:24:59.803                : en:01:24:59.803
Ще скріншоти


Джерело: &
Подяка Gelios'у та Sando7 за український звук та постер.


 Трекер:    Зареєстрований   

Завантажити / скачати фільм українською



відео для новачків



 Зареєстрований:   2017-04-15 00:05
 Розмір:   3.8 GB 
 Оцінка фільму:   4.6/10 (Голосів: 19)
   
Інші релізи
   Кроляча нора / Rabbit Hole (2010) Gelios  11 / 0   1.45 GB   2017-04-14 18:11 
ukrnet 
Частий відвідувач


З нами з: 03.01.14
Востаннє: 21.08.17
Повідомлень: 32

2017-04-14 23:46  
хто переглянув дану стрічку варто дивитись чи ні відпишіть народ !
haronwovka 
Новенький


З нами з: 14.02.14
Востаннє: 22.08.17
Повідомлень: 18

2017-04-15 10:20  
ukrnet
Не варто,ти ще не готовий.А за питання спасибі.

hetzendorf 
Відео Гуртом - підтримка та поширення
Відео Гуртом - підтримка та поширення


З нами з: 23.07.15
Востаннє: 22.08.17
Повідомлень: 402

2017-06-14 23:47  
ukrnet
Не варто. Нікому не варто.
haronwovka
Замість вумничати, написав би краще щось за суттю.

Проблема піднята важлива, але на цьому й зупинилися. Ані шляхів подолання, ані просто що з цим робити — ніц не розкрито. Суцільна нудятина, ніц не відбувається. Єдиний смішний момент — де накурені головний герой з кореянкою сміються у групі невротиків. Акторська гра нуляча, рухаються механічно й тупо читають текст з телесуфлера. Як таку роботу постарілої Кідманки могли висунути на Оскара?
3/10

Maters 
VIP


З нами з: 27.03.12
Востаннє: 20.08.17
Повідомлень: 1277

2017-07-16 11:08  
hetzendorf
КАТЕГОРИЧНО НЕ ЗГОДЕН!
Фільм на дуже високому емоційному рівні. Все показано: трагедія, біль, страх, розчарування, любов, вина, прощення. Люди несвідомо звинувачують весь світ у смерті дитини, а потім розуміють, що насправді так не можна, що це діло випадку і від цього їм ще більше башку зносить
Актори фантастично зіграли. При чому всі круті. Кожен найдрібніший момент, кожне тремтіння губ, знизування плечима дуже вдало відображають емоції героїв. Кідман в цьому фільмі неймовірна. Після перегляду Доґвіля я по-іншому почав сприймати цю акторку, а тепер вона для мене просто ВАУ!
Рекомендую цей фільм для перегляду всім. Він дуже добре показує те, наскільки важливо переламати себе після трагедії, цінувати одне одного, берегти сім'ю, вміти прощати і не зливати злості на оточуючих.
Для мене цей фільм на 8,5 а то й 9/10

P.S. В цьому фільмі не смішні моменти шукати треба...

Ваш часовий пояс: GMT + 2 Години

Нова тема   Відповісти