Дім дивних дітей Міс Сапсан / Miss Peregrine's Home for Peculiar Children (2016) 720p Ukr/Eng | Sub Ukr/Eng

Нові коментарі

Нова тема   Відповісти
Автор Повідомлення
Drool 
VIP


З нами з: 17.04.10
Востаннє: 17.10.17
Повідомлень: 1402

2017-04-10 13:39  
Дім дивних дітей Міс Сапсан / Miss Peregrine's Home for Peculiar Children (2016) 720p Ukr/Eng | Sub Ukr/Eng

Жанр: фентезі, драма, пригодницький, сімейний
Країна: США, Велика Британія, Бельгія


Діти до 13 років допускаються на фільм тільки з батьками
Настійне застереження батькам. Деякий матеріал може бути невідповідним для дітей до 13 років. Цей рейтинг показує, що оцінений фільм може бути невідповідним для дітей. Батьки повинні бути особливо обережні, дозволяючи своїм маленьким дітям перегляд. Грубе або тривале насильство відсутнє; сексуальна орієнтація на наготу відсутня; деякі сцени вживання наркотиків можуть бути присутніми; можна почути одиничні вживання грубої сексуальної лексики. Присутня епізодична оголеність (не враховуючи репродуктивні органи). Присутні сексуальні натяки і натяки на гомосексуалізм чи сексуальні збочення.
Кінокомпанія: Twentieth Century Fox Film Corporation, Chernin Entertainment, Scope Pictures, St. Petersburg Clearwater Film Commission, TSG Entertainment, Tim Burton Productions
Режисер: Тім Бартон
Актори: Ева Ґрін, Семюел Джексон, Аса Баттерфілд, Джуді Денч, Кім Діккенс, Еллісон Дженні, Елла Пернелл, Кріс О’Дауд, Руперт Еверетт, Теренс Стемп та інші

Сюжет:
Після смерті улюбленого дідуся Джейк отримує від нього лист з ключами до таємниці, яка об'єднує різні світи й епохи. Тому хлопчик потрапляє до таємничого місця, відомого як "Будинок дивних дітей". Таємничість і загроза посилюються, коли Джейк знайомиться з жителями "Дому" і дізнається про їхні особливі можливості ... і могутніх ворогів. Нарешті Джейк розуміє, що тільки його власні "особливі якості" можуть врятувати нових друзів.


Тривалість: 02:06:55
Якість: 720p
Відео:
кодек:
розмір кадру: 1280x692
бітрейт: 4034 кб/с

Аудіо # 1:
мова: українська
переклад: професійний дубльований
кодек: 5.1
бітрейт: 448 кб/с

Аудіо # 2:
мова: англійська
переклад: оригінал
кодек: 5.1
бітрейт: 448 кб/с

Субтитри 1:
мова: українська
тип: програмні (м'які)
формат: *.srt

Субтитри 2,3:
мова: англійська (full + SDH)
тип: програмні (м'які)
формат: *.srt
Info
Код:
General
Unique ID                                : 13047034246325605749418470148884681540 (0x9D0C473EFA3F1BF7FA8B498D2145344)
Complete name                            : /mnt/disk_d/Video/Miss.Peregrine's.Home.for.Peculiar.Children.2016.Ukr.Dub..720p.
Format                                   :
Format version                           : Version 4 / Version 2
File size                                : 4.37 GiB
Duration                                 : 2h 6mn
Overall bit rate                         : 4 933 Kbps
Movie name                               : Дім дивних дітей Міс Сапсан / Miss Peregrine's Home for Peculiar Children (2016) 720p Ukr/Eng | Sub Ukr/Eng
Encoded date                             : UTC 2017-04-10 10:52:11
Writing application                      : mkvmerge v9.7.1 ('Pandemonium') 64bit
Writing library                          : libebml v1.3.4 + libmatroska v1.4.5
Attachements                             : cover.jpg
DURATION                                 : 02:01:49.032000000
NUMBER_OF_FRAMES                         : 1804
NUMBER_OF_BYTES                          : 48960
_STATISTICS_WRITING_APP                  : mkvmerge v9.7.1 ('Pandemonium') 64bit
_STATISTICS_WRITING_DATE_UTC             : 2017-04-10 10:52:11
_STATISTICS_TAGS                         : BPS DURATION NUMBER_OF_FRAMES NUMBER_OF_BYTES

Video
ID                                       : 1
Format                                   : AVC
Format/Info                              : Advanced Video Codec
Format profile                           : [email protected]
Format settings, CABAC                   : Yes
Format settings, ReFrames                : 10 frames
Codec ID                                 : V_MPEG4/ISO/AVC
Duration                                 : 2h 6mn
Bit rate                                 : 4 034 Kbps
Width                                    : 1 280 pixels
Height                                   : 692 pixels
Display aspect ratio                     : 1.85:1
Frame rate mode                          : Constant
Frame rate                               : 23.976 fps
Color space                              : YUV
Chroma subsampling                       : 4:2:0
Bit depth                                : 8 bits
Scan type                                : Progressive
Bits/(Pixel*Frame)                       : 0.190
Stream size                              : 3.49 GiB (80%)
Title                                    : Дім дивних дітей Міс Сапсан / Miss Peregrine's Home for Peculiar Children (2016) 720p Ukr/Eng | Sub Ukr/Eng
Writing library                          : core 146 r2538 121396c
Encoding settings                        : cabac=1 / ref=10 / deblock=1:-3:-3 / analyse=0x3:0x133 / me=umh / subme=11 / psy=1 / psy_rd=1.00:0.00 / mixed_ref=1 / me_range=32 / chroma_me=1 / trellis=2 / 8x8dct=1 / cqm=0 / deadzone=21,11 / fast_pskip=0 / chroma_qp_offset=-2 / threads=12 / lookahead_threads=2 / sliced_threads=0 / nr=0 / decimate=0 / interlaced=0 / bluray_compat=0 / constrained_intra=0 / bframes=8 / b_pyramid=2 / b_adapt=2 / b_bias=0 / direct=3 / weightb=1 / open_gop=0 / weightp=2 / keyint=240 / keyint_min=23 / scenecut=40 / intra_refresh=0 / rc=2pass / mbtree=0 / bitrate=4034 / ratetol=1.0 / qcomp=0.60 / qpmin=0 / qpmax=69 / qpstep=4 / cplxblur=20.0 / qblur=0.5 / ip_ratio=1.40 / pb_ratio=1.30 / aq=1:0.70
Default                                  : Yes
Forced                                   : No
DURATION                                 : 02:06:55.658000000
NUMBER_OF_FRAMES                         : 182593
NUMBER_OF_BYTES                          : 3840318344
_STATISTICS_WRITING_APP                  : mkvmerge v9.7.1 ('Pandemonium') 64bit
_STATISTICS_WRITING_DATE_UTC             : 2017-04-10 10:52:11
_STATISTICS_TAGS                         : BPS DURATION NUMBER_OF_FRAMES NUMBER_OF_BYTES

Audio #1
ID                                       : 2
Format                                   : AC-3
Format/Info                              : Audio Coding 3
Mode extension                           : CM (complete main)
Format settings, Endianness              : Big
Codec ID                                 : A_AC3
Duration                                 : 2h 6mn
Bit rate mode                            : Constant
Bit rate                                 : 448 Kbps
Channel(s)                               : 6 channels
Channel positions                        : Front: L C R, Side: L R, LFE
Sampling rate                            : 48.0 KHz
Compression mode                         : Lossy
Stream size                              : 407 MiB (9%)
Title                                    : 5.1 @ 448 kbps
Language                                 : Ukrainian
Default                                  : Yes
Forced                                   : Yes

Audio #2
ID                                       : 3
Format                                   : AC-3
Format/Info                              : Audio Coding 3
Mode extension                           : CM (complete main)
Format settings, Endianness              : Big
Codec ID                                 : A_AC3
Duration                                 : 2h 6mn
Bit rate mode                            : Constant
Bit rate                                 : 448 Kbps
Channel(s)                               : 6 channels
Channel positions                        : Front: L C R, Side: L R, LFE
Sampling rate                            : 48.0 KHz
Compression mode                         : Lossy
Stream size                              : 407 MiB (9%)
Title                                    : 5.1 @ 448 kbps
Language                                 : English
Default                                  : No
Forced                                   : No

Text #1
ID                                       : 4
Format                                   : UTF-8
Codec ID                                 : S_TEXT/UTF8
Codec ID/Info                            : UTF-8 Plain Text
Title                                    : Full
Language                                 : Ukrainian
Default                                  : No
Forced                                   : No

Text #2
ID                                       : 5
Format                                   : UTF-8
Codec ID                                 : S_TEXT/UTF8
Codec ID/Info                            : UTF-8 Plain Text
Title                                    : Full
Language                                 : English
Default                                  : No
Forced                                   : No

Text #3
ID                                       : 6
Format                                   : UTF-8
Codec ID                                 : S_TEXT/UTF8
Codec ID/Info                            : UTF-8 Plain Text
Title                                    : SDH
Language                                 : English
Default                                  : No
Forced                                   : No
Скріншоти


Джерело відеоряду: NNM Club
Особиста оцінка: 8 - мені сподобалося


 Трекер:    Зареєстрований   

Завантажити / скачати фільм українською



відео для новачків



 Зареєстрований:   2017-04-10 14:21
 Розмір:   4.37 GB 
 Оцінка фільму:   8.7/10 (Голосів: 15)
   
kill_1 
Свій


З нами з: 11.07.10
Востаннє: 12.10.17
Повідомлень: 93

2017-04-10 16:14  
як я люблю цей гуртом зі швидкістю скачування 2005 р. =)))))

Вибач релізер но в мене все горить який фільм не візьму скачати він скачуеться 2 дні або й більше або взагалі мертвий

Drool 
VIP


З нами з: 17.04.10
Востаннє: 17.10.17
Повідомлень: 1402

2017-04-11 17:12  
kill_1 написано:
1. як я люблю цей гуртом зі швидкістю скачування 2005 р. =)))))

2. Вибач релізер но в мене все горить який фільм не візьму скачати він скачуеться 2 дні або й більше або взагалі мертвий
1. Качайте там, де швидкість не 2005-го року.
2. А от в кого не горіло, через кілька годин вже було біля 8 сідерів.

Patriot_ukr 
VIP


З нами з: 06.04.15
Востаннє: 16.10.17
Повідомлень: 1793

2017-04-11 17:16  
Все ж, є одне питання, нащо два релізи у 720p?
Drool 
VIP


З нами з: 17.04.10
Востаннє: 17.10.17
Повідомлень: 1402

2017-04-11 22:31  
Patriot_ukr написано:
Все ж, є одне питання, нащо два релізи у 720p?
Цей на розмір DVD5, інший влізе лише на DVD9.
Віктор Волк 
Новенький


З нами з: 01.09.15
Востаннє: 15.10.17
Повідомлень: 2

2017-07-17 18:08  
Сапсан? А хіба імена, прізвища і прізвиська перекладаються? Я чогось думав, що ні, лише ставиться примітка про справжнє значення, щоб в подальшому читачі(глядачі розуміли) смислове навантаження. Хоча, шо тут на дріб"язки впадати, давайте уже назвемо нашого президента Пітером Дастінгом і будемо спокійно жити далі. А шо, Якщо Перегрін - Сапсан, то Порошенко-Дастінг. Хулі нам, ми ж безграмотні?))))))
Ваш часовий пояс: GMT + 2 Години

Нова тема   Відповісти