Пекло / Brimstone (2016) Remux 1080p Ukr/Eng | Sub Eng

Нові коментарі

Нова тема   Відповісти
Автор Повідомлення
famous37 
Відео Гуртом - фільмокрай
Відео Гуртом - фільмокрай


З нами з: 16.11.08
Востаннє: 16.10.17
Повідомлень: 723

2017-04-09 17:24  
Пекло / Brimstone (2016) Remux 1080p Ukr/Eng | Sub Eng

Пекло / Brimstone (2016) Remux 1080p Ukr/Eng | Sub Eng


Жанр: вестерн, трилер
Країна: Франція, Німеччина, Нідерланди, Бельгія



Кінокомпанія: 279 Entertainment, Backup Media, Film i Väst
Режисер: Мартін Кулховен
Актори: Дакота Фаннінг, Кіт Гарінгтон, Каріс Ван Гутен, Гай Пірс, Пол Андерсон, Емілія Джонс, Карла Юрі, Джек Рот, Вільям Г'юстон, Наомі Баттрік та інші

Сюжет:
Фільм розповідає про дівчину, яку звуть Ліз. Вона хоче піти від свого темного минулого і ховається від переслідування диявольського Проповідника. Дівчина живе на відстані від людей, серед пісків Америки. Ліз – виживша, жінка великої сили, неймовірно хоробра і добра. Вона та її дочка точно заслуговують на краще життя, ніж мають. Треба тільки розібратися з Проповідником...


Вікова категорія: 18+

Тривалість: 02:28:32
Якість: Remux 1080p
Відео:
кодек:
розмір кадру: 1920х1080
бітрейт: 24 мб/с

Аудіо # 1:
мова: українська
переклад: багатоголосий закадровий
кодек: 5.1
бітрейт: 384 кб/с

Аудіо # 2:
мова: англійська
переклад: оригінал
кодек: -HD 5.1
бітрейт: 1810 кб/с

Субтитри:
мова: англійська (форсовані, повні)
тип: програмні (м'які)
формат: *.srt
Info
General
Unique ID : 185670959758603652680552581823357457002 (0x8BAEED1636FE5223A168EAB826AF126A)
Complete name : E:\Brimstone (2016) Remux 1080p [Ukr,Eng] [sub Eng] by famous37 [Hurtom].
Format :
Format version : Version 4 / Version 2
File size : 27.2 GiB
Duration : 2 h 28 min
Overall bit rate mode : Variable
Overall bit rate : 26.2 Mb/s
Movie name : Brimstone (2016) Remux 1080p [Ukr,Eng] [sub Eng] by famous37 [Hurtom]
Encoded date : UTC 2017-04-11 17:29:00
Writing application : mkvmerge v9.8.0 ('Kuglblids') 64bit
Writing library : libebml v1.3.4 + libmatroska v1.4.5

Video
ID : 1
Format : AVC
Format/Info : Advanced Video Codec
Format profile : [email protected]
Format settings, CABAC : Yes
Format settings, ReFrames : 4 frames
Format settings, GOP : M=3, N=24
Codec ID : V_MPEG4/ISO/AVC
Duration : 2 h 28 min
Bit rate mode : Variable
Bit rate : 24.0 Mb/s
Maximum bit rate : 35.0 Mb/s
Width : 1 920 pixels
Height : 1 080 pixels
Display aspect ratio : 16:9
Frame rate mode : Constant
Frame rate : 23.976 (24000/1001) FPS
Standard : NTSC
Color space : YUV
Chroma subsampling : 4:2:0
Bit depth : 8 bits
Scan type : Progressive
Bits/(Pixel*Frame) : 0.483
Stream size : 24.9 GiB (92%)
Language : English
Default : Yes
Forced : No
Color range : Limited
Color primaries : BT.709
Transfer characteristics : BT.709
Matrix coefficients : BT.709

Audio #1
ID : 2
Format : AC-3
Format/Info : Audio Coding 3
Format settings, Endianness : Big
Codec ID : A_AC3
Duration : 2 h 28 min
Bit rate mode : Constant
Bit rate : 384 kb/s
Channel(s) : 6 channels
Channel positions : Front: L C R, Side: L R, LFE
Sampling rate : 48.0 kHz
Frame rate : 31.250 FPS (1536 spf)
Bit depth : 16 bits
Compression mode : Lossy
Stream size : 408 MiB (1%)
Title : iTunes
Language : Ukrainian
Service kind : Complete Main
Default : Yes
Forced : No

Audio #2
ID : 3
Format :
Format/Info : Digital Theater Systems
Format profile : MA / Core
Mode : 16
Format settings, Endianness : Big
Codec ID : A_DTS
Duration : 2 h 28 min
Bit rate mode : Variable / Constant
Bit rate : 1 810 kb/s / 1 509 kb/s
Channel(s) : 6 channels
Channel positions : Front: L C R, Side: L R, LFE
Sampling rate : 48.0 kHz
Frame rate : 93.750 FPS (512 spf)
Bit depth : 16 bits
Compression mode : Lossless / Lossy
Stream size : 1.88 GiB (7%)
Language : English
Default : No
Forced : No

Text #1
ID : 4
Format : UTF-8
Codec ID : S_TEXT/UTF8
Codec ID/Info : UTF-8 Plain Text
Duration : 2 h 0 min
Bit rate : 0 b/s
Count of elements : 32
Stream size : 836 Bytes (0%)
Title : Forced
Language : English
Default : No
Forced : No

Text #2
ID : 5
Format : UTF-8
Codec ID : S_TEXT/UTF8
Codec ID/Info : UTF-8 Plain Text
Duration : 2 h 18 min
Bit rate : 27 b/s
Count of elements : 948
Stream size : 28.2 KiB (0%)
Language : English
Default : No
Forced : No

Menu
00:00:00.000 : en:00:00:00.000
00:04:29.853 : en:00:04:29.853
00:11:51.920 : en:00:11:51.920
00:19:58.489 : en:00:19:58.489
00:25:06.213 : en:00:25:06.213
00:32:22.190 : en:00:32:22.190
00:42:25.042 : en:00:42:25.042
00:48:21.148 : en:00:48:21.148
00:55:44.341 : en:00:55:44.341
01:01:14.254 : en:01:01:14.254
01:06:42.040 : en:01:06:42.040
01:17:13.963 : en:01:17:13.963
01:24:38.156 : en:01:24:38.156
01:32:47.312 : en:01:32:47.312
01:39:57.241 : en:01:39:57.241
01:49:04.788 : en:01:49:04.788
01:56:10.630 : en:01:56:10.630
02:02:54.867 : en:02:02:54.867
02:13:38.177 : en:02:13:38.177
02:20:17.909 : en:02:20:17.909
Скріншоти
Джерело:
Особиста оцінка: 10 - без зайвих вагань рекомендую всім!

Завантажуйте і не забувайте про коментарі та подяки, адже на цьому будується наше спілкування
і не дає довести процес обміну фільмами до бездушного автоматизму!!!

Будь ласка, залишайтеся на роздачі!
Діліться з ближніми!




Приємного перегляду! =)


Золотий реліз (завантажене не впливає на рейтинг)
 Трекер:    Зареєстрований   

Завантажити / скачати фільм українською



відео для новачків



 Зареєстрований:   2017-04-11 21:04
 Розмір:   27.18 GB 
 Оцінка фільму:   9.1/10 (Голосів: 17)
   
Інші релізи
   Пекло / Brimstone (2016) 1080p Ukr/Eng | Sub Eng Electroz  8 / 0   12.93 GB   2017-04-05 08:20 
   Пекло / Brimstone (2016) AVC Ukr/Eng | Sub Eng 11FrYkT  10 / 0   2.65 GB   2017-04-02 13:57 
   Пекло / Brimstone (2016) 720p Ukr/Eng | Sub Eng igor911  10 / 0   6.32 GB   2017-04-02 03:40 
   Пекло / Brimstone (2016) AngryBirdsUA  30 / 0   2.18 GB   2017-02-09 21:27 
bot 
робот


З нами з: 30.09.07
Востаннє: 26.05.05
Повідомлень: 17692

2017-04-11 21:04  
Тему перенесено з Анонси релізів до форуму Фільми в HD


famous37

Uberwinder 
Свій


З нами з: 18.11.16
Востаннє: 17.10.17
Повідомлень: 138

2017-04-12 07:02  
Окрема подяка за українську звукову доріжку 5.1!
andrej_1988 
Новенький


З нами з: 13.07.13
Востаннє: 16.10.17
Повідомлень: 1

2017-04-29 21:52  
Емоційно дуже важкий фільм!
sandman 
Поважний учасник


З нами з: 12.08.12
Востаннє: 16.10.17
Повідомлень: 175

2017-05-15 09:43  
Дуже важкий, але надзвичайно сильний фільм. Дякую!
Uberwinder 
Свій


З нами з: 18.11.16
Востаннє: 17.10.17
Повідомлень: 138

2017-06-27 06:29  
Сильний і дуже гнітючий фільм! Рекомендую до перегляду.
Ваш часовий пояс: GMT + 2 Години

Нова тема   Відповісти